Колумбарий / Columbarium (Стив Керр / Steve Kerr) [2012 г., фэнтези, триллер, драма, WEB-DL 720p] DVO [DeadSno&den904] + Original (FRE) + Subs (ENG)

Ответить на тему
 
Автор
Сообщение

TiZAr ®

Пол:

Стаж: 4 года 9 месяцев

Сообщений: 837

Репутация: 1160 [+] [-]

Откуда: Россия

Пост 24-Фев-2014 03:39

[Цитировать] 

Колумбарий / Columbarium- Год выпуска: 2012
Страна: Канада
Жанр: фэнтези, триллер, драма
Продолжительность: 01:24:24
Перевод: Любительский (двухголосый, закадровый)
Озвучивание: [DeadSno & den904]
Перевод на русский язык: [Антонио] - работа со звуком [Гуннлауг]
Cубтитры: английские
Оригинальная аудиодорожка: французская
Навигация по главам: Есть
Режиссер: Стив Керр / Steve Kerr- -В ролях:
Давид Бутен, Пьер Коллин, Gilbert Comptois, Максим Дюмонтье, Джанет Лэйн, Милен Сен-Совер, Catherine Yale и др.
Описание:
Два брата получают от покойного отца в наследство дом, но на пути туда они даже не подозревали, что будут вынуждены столкнуться с очень странными видениями…
Релиз от:

Качество: WEB-DL 720p | Сэмпл | [HD4FUN]
Формат: MKV
Видео: AVC, 1280x544 (2.35:1), 23.976 fps, 3 736 Kbps (0.224 bit/pixel)
Аудио #1: AC-3, 48.0 KHz, 2 ch, 192 Kbps, CBR (Russian)
Аудио #2: AC-3, 48.0 KHz, 6 ch, 384 Kbps, CBR (French)

MI

Код:
General
Unique ID                                : 204223414765909864542471646980345917711 (0x99A3FFBD6ED85BD4821F99A9399F710F)
Complete name                            : E:\downloads\Columbarium.2012.WEB-DL.720p.CINEMANIA.mkv
Format                                   : Matroska
Format version                           : Version 4 / Version 2
File size                                : 2.61 GiB
Duration                                 : 1h 24mn
Overall bit rate                         : 4 400 Kbps
Movie name                               : Release Group CINEMANIA
Encoded date                             : UTC 2014-02-21 22:41:08
Writing application                      : mkvmerge v6.7.0 ('Back to the Ground') 64bit built on Jan  8 2014 15:10:52
Writing library                          : libebml v1.3.0 + libmatroska v1.4.1
Video
ID                                       : 1
Format                                   : AVC
Format/Info                              : Advanced Video Codec
Format profile                           : Main@L3.1
Format settings, CABAC                   : No
Format settings, ReFrames                : 2 frames
Codec ID                                 : V_MPEG4/ISO/AVC
Duration                                 : 1h 24mn
Bit rate                                 : 3 736 Kbps
Width                                    : 1 280 pixels
Height                                   : 544 pixels
Display aspect ratio                     : 2.35:1
Frame rate mode                          : Constant
Frame rate                               : 23.976 fps
Color space                              : YUV
Chroma subsampling                       : 4:2:0
Bit depth                                : 8 bits
Scan type                                : Progressive
Bits/(Pixel*Frame)                       : 0.224
Stream size                              : 2.22 GiB (85%)
Title                                    : Release Group CINEMANIA
Language                                 : English
Default                                  : Yes
Forced                                   : No
Color primaries                          : BT.709
Transfer characteristics                 : BT.709
Matrix coefficients                      : BT.709
Audio #1
ID                                       : 2
Format                                   : AC-3
Format/Info                              : Audio Coding 3
Mode extension                           : CM (complete main)
Format settings, Endianness              : Big
Codec ID                                 : A_AC3
Duration                                 : 1h 24mn
Bit rate mode                            : Constant
Bit rate                                 : 192 Kbps
Channel count                            : 2 channels
Channel positions                        : Front: L R
Sampling rate                            : 48.0 KHz
Bit depth                                : 16 bits
Compression mode                         : Lossy
Stream size                              : 117 MiB (4%)
Title                                    : den904 & DeadSno
Language                                 : Russian
Default                                  : Yes
Forced                                   : Yes
Audio #2
ID                                       : 3
Format                                   : AC-3
Format/Info                              : Audio Coding 3
Mode extension                           : CM (complete main)
Format settings, Endianness              : Big
Codec ID                                 : A_AC3
Duration                                 : 1h 24mn
Bit rate mode                            : Constant
Bit rate                                 : 384 Kbps
Channel count                            : 6 channels
Channel positions                        : Front: L C R, Side: L R, LFE
Sampling rate                            : 48.0 KHz
Bit depth                                : 16 bits
Compression mode                         : Lossy
Stream size                              : 233 MiB (9%)
Language                                 : French
Default                                  : No
Forced                                   : No
Text
ID                                       : 4
Format                                   : UTF-8
Codec ID                                 : S_TEXT/UTF8
Codec ID/Info                            : UTF-8 Plain Text
Language                                 : English
Default                                  : No
Forced                                   : No
Menu
00:00:00.000                             : en:G茅n茅rique
00:05:34.000                             : en:Un camion noir
00:10:34.000                             : en:Au chalet
00:16:13.000                             : en:Un nouveau travail
00:22:06.000                             : en:Le r锚ve
00:26:30.000                             : en:Le premier jour
00:30:15.000                             : en:Le r么le de policier
00:34:16.000                             : en:Dieu et l'argent
00:40:14.000                             : en:Un tour de chaloupe
00:45:43.000                             : en:Dans la for锚t
00:52:16.000                             : en:Le fr猫re
00:57:36.000                             : en:Les feux d'artifice
01:02:28.000                             : en:Attach茅
01:09:58.000                             : en:Le columbarium
01:15:48.000                             : en:Le dernier jour
01:22:13.000                             : en:Fin

Скриншоты

-

_________________
Не стоит обращать внимания на отсутствие сидов на моих раздачах. Все мои релизы мультитрекерные - нет сидов, включите DHT.
За релизами в HD качестве обращайтесь в личку, либо отписывайтесь в теме.
[Торрент-статистика]
[Профиль]  [ЛС] 

girod2033

Стаж: 13 дней

Сообщений: 1

Репутация: 0 [+] [-]

Пост 05-Июн-2018 09:56 (спустя 4 года 3 месяца)

[Цитировать] 

Раздайте, пожалуйста!
[Торрент-статистика]
[Профиль]  [ЛС] 
Показать сообщения:    
Ответить на тему

Текущее время: Сегодня 08:34

Часовой пояс: GMT + 4



Вы не можете начинать темы
Вы не можете отвечать на сообщения
Вы не можете редактировать свои сообщения
Вы не можете удалять свои сообщения
Вы не можете голосовать в опросах
Вы не можете прикреплять файлы к сообщениям
Вы не можете скачивать файлы