Дневники вампира / The Vampire Diaries / Сезон: 5 / Серии: 1-8 (22) (Крис Грисмер, Дж. Миллер Тобин) [2013, фантастика, драма, ужасы, WEB-DLRip 400p] MVO (LostFilm) + Original + Subs (Rus, Eng)

Ответить на тему
 
Автор
Сообщение

Волк ®

Пол:

Стаж: 6 лет 11 месяцев

Сообщений: 695

Репутация: 300 [+] [-]

Откуда: Армения

Пост 20-Фев-2014 22:46

[Цитировать] 

-Дневники вампира / The Vampire Diaries-- Страна: США | USA
Жанр: ужасы, фэнтези, драма, мелодрама
Год выпуска: 2013
Продолжительность: ~00:42:00
Перевод: Профессиональный (многоголосый закадровый) (LostFilm)
Cубтитры: английские-Режиссер: Маркос Сига / Marcos Siega-В ролях:Нина Добрев, Пол Уэсли, Иен Сомерхолдер, Стивен Р. МакКуин, Катерина Грэхэм, Кэндис Аккола, Зак Рериг, Майкл Тревино, Мэттью Дэвис, Сара Каннинг и др.-Описание:
В 5 сезоне тем, кто учился в школе Мистик-Фолс, пора отправляться в колледж. Вылечившийся вампир будет приспосабливаться к человеческой жизни. В случае с Кэтрин Пирс это даже трудно представить.
У Дэймона и Стефана Сальваторе есть тайна, которая будет раскрыта. Но вот что-то теперь будет делать Стефан или Сайлас?
-«Семпл»
«Все раздачи сериала»-Релиз:
Озвучка: «LostFilm»
Работа со звуком: kmarats
Рип: ЛП-Качество видео: WEB-DLRip
Формат:
AVI
Видео кодек: XviD
Аудио кодек: AC3
Видео: XviD, 720x400 (16/9), 23.976 fps, ~2000 Kbps (0.290 bit/pixel)
Аудио Rus: AC3, 48 KHz, 6 ch, 384 kbps / LostFilm /
Аудио Eng: AC3, 48 KHz, 6 ch, 384 kbps / Оригинал /

MediaInfo:

Format : AVI
Format/Info : Audio Video Interleave
File size : 862 MiB
Duration : 43mn 18s
Overall bit rate : 2 782 Kbps
Writing application : VirtualDubMod 1.5.10.2 (build 2540/release)
Writing library : VirtualDubMod build 2540/release
Video
ID : 0
Format : MPEG-4 Visual
Format profile : Advanced Simple@L5
Format settings, BVOP : 1
Format settings, QPel : No
Format settings, GMC : No warppoints
Format settings, Matrix : Default (MPEG)
Codec ID : XVID
Codec ID/Hint : XviD
Duration : 43mn 18s
Bit rate : 2 000 Kbps
Width : 720 pixels
Height : 400 pixels
Display aspect ratio : 16:9
Frame rate : 23.976 fps
Color space : YUV
Chroma subsampling : 4:2:0
Bit depth : 8 bits
Scan type : Progressive
Compression mode : Lossy
Bits/(Pixel*Frame) : 0.290
Stream size : 619 MiB (72%)
Writing library : XviD 65
Audio #1
ID : 1
Format : AC-3
Format/Info : Audio Coding 3
Mode extension : CM (complete main)
Format settings, Endianness : Big
Codec ID : 2000
Duration : 43mn 18s
Bit rate mode : Constant
Bit rate : 384 Kbps
Channel(s) : 6 channels
Channel positions : Front: L C R, Side: L R, LFE
Sampling rate : 48.0 KHz
Bit depth : 16 bits
Compression mode : Lossy
Stream size : 119 MiB (14%)
Alignment : Split accross interleaves
Interleave, duration : 42 ms (1.00 video frame)
Interleave, preload duration : 500 ms
Audio #2
ID : 2
Format : AC-3
Format/Info : Audio Coding 3
Mode extension : CM (complete main)
Format settings, Endianness : Big
Codec ID : 2000
Duration : 43mn 18s
Bit rate mode : Constant
Bit rate : 384 Kbps
Channel(s) : 6 channels
Channel positions : Front: L C R, Side: L R, LFE
Sampling rate : 48.0 KHz
Bit depth : 16 bits
Compression mode : Lossy
Stream size : 119 MiB (14%)
Alignment : Split accross interleaves
Interleave, duration : 42 ms (1.00 video frame)
Interleave, preload duration : 500 ms

Скриншоты:


Раздача ведётся путём добавления новых серий:

Раздача ведётся путём добавления новых серий; при каждом добавлении создаётся новый торрент. Чтобы начать докачку новой серии, пользователям необходимо сделать следующее:
(1) остановить скачивание,
(2) удалить старый торрент у себя из клиента (старые серии удалять не надо),
(3) скачать новый торрент и запустить его у себя в клиенте вместо старого, при этом указать клиенту путь в старую папку куда и должно происходить скачивание новых серий.
Ваш клиент при этом должен произвести хеширование (проверку) старой папки (если не производит сам - помогите ему сделать это), и будет докачивать только те серии которых у вас ещё нет. Старые серии при этом не удаляются, а продолжают раздаваться!
Eсли вы уже удалили старые серии, то предотвратить повторную закачку старых серий можно, отжав галочку в соответствующих местах при запуске нового торрента. По возможности, желательно не удалять старые серии как можно дольше чтобы релизёр не столько продолжал раздавать старые серии, а смог сконцентрироваться на новых.
[Торрент-статистика]
[Профиль]  [ЛС] 
Показать сообщения:    
Ответить на тему

Текущее время: Сегодня 00:18

Часовой пояс: GMT + 4



Вы не можете начинать темы
Вы не можете отвечать на сообщения
Вы не можете редактировать свои сообщения
Вы не можете удалять свои сообщения
Вы не можете голосовать в опросах
Вы не можете прикреплять файлы к сообщениям
Вы не можете скачивать файлы