Дневники вампира / The Vampire Diaries / Сезон: 5 / Серии: 1-10 (22) (Крис Грисмер, Дж. Миллер Тобин) [2013, драма, фэнтези, WEB-DLRip] MVO (LostFilm)

Ответить на тему
 
Автор
Сообщение

Волк ®

Пол:

Стаж: 8 лет

Сообщений: 698

Репутация: 301 [+] [-]

Откуда: Армения

Пост 20-Фев-2014 22:39

[Цитировать] 

--Дневники вампира / The Vampire Diaries-- Год выпуска: 2013
Страна: США | The CW
Жанр: драма, фэнтези
Продолжительность: ~ 42 минуты
Перевод: Профессиональный (многоголосый, закадровый) - LostFilm
Субтитры: Нет
Режиссёры: Крис Грисмер, Дж. Миллер Тобин-В ролях: Нина Добрев, Пол Уэсли, Иен Сомерхолдер, Стивен Р. МакКуин, Катерина Грэхэм, Кэндис Аккола, Зак Рериг, Майкл Тревино, Мэттью Дэвис, Джозеф Морган и др.-Описание: Прошло всего четыре месяца после трагической аварии, в которой погибли их родители, и 17-летняя Елена Гилберт и ее 15-летний брат Джереми все еще пытаются оправиться от потери и вернуться к нормальной жизни. Елена всегда была отличной ученицей, красивой и популярной девушкой в школе, но теперь ей очень тяжело скрывать свою печаль от внешнего мира. В начале учебного года внимание Елены и ее друзей привлекает новый ученик, загадочный и красивый Стефан Сальваторе.
Стефан и Елена тут же чувствуют взаимную симпатию, но Елена даже не подозревает, что Стефан — вампир, которому уже сотни лет, и который старается мирно жить среди людей, несмотря на то, что его брат, Дэймон — воплощение вампирской жестокости и кровожадности. Теперь два брата-вампира — один добрый, другой злой — ведут борьбу за души Елены, ее друзей и других жителей городка Мистик Фоллз.-Качество: WEB-DLRip
Формат: AVI
Видео кодек: XviD
Аудио кодек: AC3
Видео: 704x400 (16:9), 23.976 fps, ~1100 kbps, ~0.165 bit/pixel
Аудио Rus: 48 kHz, 2 ch, 192 kbps |LostFilm|-
Озвучка: Студия "LostFilm"
Перевод: Omega
Рип: LegendKiev-Все раздачи сериала / Сэмпл / ImDB / Кинопоиск-

Список серий

Я знаю, что ты делал прошлым летом / I Know What You Did Last Summer
Правдивая ложь / True Lies
Первородный грех / Original Sin
По ком звонит колокол / For Whom the Bell Tolls
Бал монстров / Monster's Ball
Обращаться осторожно / Handle with Care
Смерть и дева / Death and the Maiden
Мертвец в колледже / Dead Man on Campus
Клетка / The Cell
50 оттенков Грэйсона / Fifty Shades of Grayson

Скриншоты


MediaInfo

Общее
Формат : AVI
Формат/Информация : Audio Video Interleave
Размер файла : 400 Мбайт
Продолжительность : 42 м.
Общий поток : 1317 Кбит/сек
Программа кодирования : VirtualDubMod 1.5.10.2 (build 2540/release)
Библиотека кодирования : VirtualDubMod build 2540/release
Видео
Идентификатор : 0
Формат : MPEG-4 Visual
Профиль формата : Advanced Simple@L5
Параметр BVOP формата : 1
Параметр QPel формата : Нет
Параметр GMC формата : Без точки перехода
Параметр матрицы формата : Выборочная
Идентификатор кодека : XVID
Идентификатор кодека/Подсказка : XviD
Продолжительность : 42 м.
Битрейт : 1115 Кбит/сек
Ширина : 704 пикселя
Высота : 400 пикселей
Соотношение сторон : 16:9
Частота кадров : 23,976 кадра/сек
Цветовое пространство : YUV
Субдискретизация насыщенности : 4:2:0
Битовая глубина : 8 бит
Тип развёртки : Прогрессивная
Метод сжатия : С потерями
Бит/(Пиксели*Кадры) : 0.165
Размер потока : 339 Мбайт (85%)
Библиотека кодирования : XviD 73
Аудио
Идентификатор : 1
Формат : AC-3
Формат/Информация : Audio Coding 3
Расширение режима : CM (complete main)
Параметр Endianness формата : Big
Идентификатор кодека : 2000
Продолжительность : 42 м.
Вид битрейта : Постоянный
Битрейт : 192 Кбит/сек
Каналы : 2 канала
Расположение каналов : Front: L R
Частота : 48,0 КГц
Битовая глубина : 16 бит
Метод сжатия : С потерями
Размер потока : 58,4 Мбайт (15%)
Выравнивание : Разделение по промежуткам
Продолжительность промежутка : 42 мс. (1,00 видеокадр)
Время предзагрузки промежутка : 500 мс.

Внимание! Раздача ведётся путём добавления новых серий.

Внимание! Раздача ведётся путём добавления новых серий; при каждом добавлении создётся новый торрент. Чтобы начать докачку новой серии, пользователям необходимо сделать следующее:
Остановить скачивание.
Удалить старый торрент у себя из клиента (старые серии удалять не надо).
Скачать новый торрент и запустить его у себя в клиенте вместо старого, при этом указать клиенту путь в старую папку куда и должно происходить скачивание новых серий.
Ваш клиент при этом должен произвести хеширование (проверку) старой папки (если не производит сам - помогите ему сделать это), и будет докачивать только те серии которых у вас ещё нет. Старые серии при этом не удаляются, а продолжают раздаваться!
Eсли вы уже удалили старые серии, то предотвратить повторную закачку старых серий можно, отжав галочку в соответсвующих местах при запуске нового торрента. По возможности, желательно не удалять старые серии как можно дольше чтобы релизёр не столько продолжал раздавать старые серии, а смог сконцентрироваться на новых.
[Торрент-статистика]
[Профиль]  [ЛС] 
Показать сообщения:    
Ответить на тему

Текущее время: Сегодня 04:46

Часовой пояс: GMT + 4



Вы не можете начинать темы
Вы не можете отвечать на сообщения
Вы не можете редактировать свои сообщения
Вы не можете удалять свои сообщения
Вы не можете голосовать в опросах
Вы не можете прикреплять файлы к сообщениям
Вы не можете скачивать файлы