Опасный Бангкок / Bangkok Dangerous (Оксид Пэнг Чун / Oxide Pang Chun, Дэнни Пэнг / Danny Pang) [2008 г., Боевик, триллер, драма, криминал, DVDRip] Dub

Ответить на тему
 
Автор
Сообщение

awk05 ®

Пол:

Стаж: 6 лет 5 месяцев

Сообщений: 1347

Репутация: 275 [+] [-]

Откуда: Западная Украина Ривне

Пост 22-Янв-2014 22:30

[Цитировать] 

--Опасный Бангкок / Bangkok Dangerous-- Страна: США
Жанр: Боевик, триллер, драма, криминал
Год выпуска: 2008
Продолжительность: 01:39:12
Перевод: Профессиональный (дублированный)
Cубтитры: нет--
Режиссер: Оксид Пэнг Чун / Oxide Pang Chun, Дэнни Пэнг / Danny Pang--
В ролях: Николас Кейдж(Joe), Шакрит Ямнарм(Kong), Чарли Енг(Fon), Пэнворд Хаммани( Aom), Ниратисай Канджарук( Surat), Дом Хетракул(Aran), Так Напаскорн(Kong's Brother), Стив Балдоччи(Michigan), Крис Хибинк(USC), Джеймс Уит(Chicago)--
Описание: Четыре главных правила наемного убийцы: 1) не задавать вопросов; 2) нет правых и виноватых; 3) не интересоваться людьми, не имеющих отношения к работе; 4) знать, когда уйти, и уйти богатым. В этом городе вы можете купить всё, но вы не можете купить всех. И тогда для вас нет страшнее человека, чем наемный убийца, который отвечает на удар. Профессиональный наемный убийца приезжает в Бангкок для проведения серии сложных операций. Он понимает, что не сможет справиться с заданием один, поэтому нанимает себе в помощники местного ловкого парня, который четко выполняет все его поручения. Но со временем отношения шефа-киллера и тайского юноши меняются, в холодном сердце бывалого убийцы зарождается чувство...--
Качество видео: DVDRip
Формат видео: AVI
Видео кодек: XviD
Аудио кодек: AC3
Видео: 704x400 (16:9), 23.976 fps, ~1653 kbps avg, 0.245 bit/pixel
Аудио: 48 kHz, AC3 Dolby Digital, 3/2 (L,C,R,l,r) + LFE ch, ~ 448 kbps--
--

MediaInfo

Общее
Полное имя : D:\раздачи\Opasnyj.Bangkok.2008.XviD.DVDRip(HDRip).avi
Формат : AVI
Формат/Информация : Audio Video Interleave
Размер файла : 1,46 Гбайт
Продолжительность : 1 ч. 39 м.
Общий поток : 2108 Кбит/сек
Программа кодирования : VirtualDubMod 1.5.4.1 (build 2178/release)
Библиотека кодирования : VirtualDubMod build 2178/release
Видео
Идентификатор : 0
Формат : MPEG-4 Visual
Профиль формата : Advanced Simple@L5
Параметр BVOP формата : 1
Параметр QPel формата : Нет
Параметр GMC формата : Без точки перехода
Параметр матрицы формата : Выборочная
Идентификатор кодека : XVID
Идентификатор кодека/Подсказка : XviD
Продолжительность : 1 ч. 39 м.
Битрейт : 1653 Кбит/сек
Ширина : 704 пикселя
Высота : 400 пикселей
Соотношение сторон : 16:9
Частота кадров : 23,976 кадра/сек
Цветовое пространство : YUV
Субдискретизация насыщенности : 4:2:0
Битовая глубина : 8 бит
Тип развёртки : Прогрессивная
Метод сжатия : С потерями
Бит/(Пиксели*Кадры) : 0.245
Размер потока : 1,15 Гбайт (78%)
Библиотека кодирования : XviD 1.3.0.dev55
Аудио
Идентификатор : 1
Формат : AC-3
Формат/Информация : Audio Coding 3
Расширение режима : CM (complete main)
Параметр Endianness формата : Big
Идентификатор кодека : 2000
Продолжительность : 1 ч. 39 м.
Вид битрейта : Постоянный
Битрейт : 448 Кбит/сек
Каналы : 6 каналов
Расположение каналов : Front: L C R, Side: L R, LFE
Частота : 48,0 КГц
Битовая глубина : 16 бит
Метод сжатия : С потерями
Размер потока : 318 Мбайт (21%)
Выравнивание : Разделение по промежуткам
Продолжительность промежутка : 96 мс. (2,30 видеокадра)
Время предзагрузки промежутка : 96 мс.

_________________
[Торрент-статистика]
[Профиль]  [ЛС] 
Показать сообщения:    
Ответить на тему

Текущее время: Сегодня 01:31

Часовой пояс: GMT + 4



Вы не можете начинать темы
Вы не можете отвечать на сообщения
Вы не можете редактировать свои сообщения
Вы не можете удалять свои сообщения
Вы не можете голосовать в опросах
Вы не можете прикреплять файлы к сообщениям
Вы не можете скачивать файлы