Звездный крейсер Галактика: План / Battlestar Galactica: The Plan (Майкл Раймер, Род Харди) [2009 г., фантастика, боевик, драма, приключения, BDRip]

Ответить на тему
 
Автор
Сообщение

awk05 ®

Пол:

Стаж: 6 лет 1 месяц

Сообщений: 1351

Репутация: 275 [+] [-]

Откуда: Западная Украина Ривне

Пост 16-Янв-2014 22:09

[Цитировать] 

--Звездный крейсер Галактика: План / Battlestar Galactica: The Plan-- Год выпуска: 2009
Страна: США
Жанр: фантастика, боевик, драма, приключения
Продолжительность: 01:51:22
Перевод: Профессиональный (многоголосый, закадровый)
Русские субтитры: нет--Режиссер: Майкл Раймер, Род Харди--В ролях: Тришиа Хелфер, Эдвард Джеймс Олмос, Грэйс Парк, Каллум Кейт Ренни, Дин Стокуэлл, Майкл Хоган, Кейт Вернон, Майкл Тракко, Рекха Шарма, Алекс Феррис--Описание: Полнометражный приквел самой захватывающей, жестокой и мрачной космической оперы 21-го века, рассказывающий о плане машин, созданных человеком и наделенных искусственным интеллектом - сайлонов, по уничтожению человечества…
Третье тысячелетие… Космические полёты давно реальность... Люди создают Сайлонов - роботов с искусственным интеллектом, призванных помогать человеку. Сайлоны взбунтовались, была война. Люди победили, а Сайлоны исчезли в далёком космосе. 40 лет прошло и Сайлоны вернулись… Но у них теперь есть огромное преимущество - они создали новых роботов, как две капли воды похожих на Человека. Некоторые из них не знают, кто они, считая себя людьми. Сайлоны наносят бомбовые удары по всем планетам, населённым людьми, большинство населения уничтожено, выжить удалось нескольким пассажирским лайнерам и Боевому Крейсеру \"Галактика\". Теперь очередь Человечества спасаться в космосе от преследователей…
Полнометражный фильм даёт нам возможность ещё раз вернуться к началу сериала "Звёздный крейсер "Галактика" и увидеть происходящее с другой точки зрения.--Качество: BDRip
Формат: AVI
Видео кодек: AVC
Аудио кодек: DTS
Видео: 1280х720 (16:9), 23,976 кадра/сек, 4081 Кбит/сек, 0.185 Бит/(Пиксели*Кадры)
Аудио 1: 6 каналов Front: L C R, Side: L R, LFE, 48,0 КГц, 1509 Кбит/сек /Russian/
Аудио 2: 6 каналов Front: L C R, Side: L R, LFE, 48,0 КГц, 755 Кбит/сек-- --

MediaInfo

Общее
Уникальный идентификатор : 197637717623717588659318138469366527588 (0x94AFA3CD499107349F87063F9AE67664)
Полное имя : E:\Films\Battlestar_Galactica.The_Plan_BDrip72o_DTS.mkv
Формат : Matroska
Версия формата : Version 2
Размер файла : 4,94 Гбайт
Продолжительность : 1 ч. 51 м.
Общий поток : 6346 Кбит/сек
Дата кодирования : UTC 2009-11-02 05:10:39
Программа кодирования : mkvmerge v2.9.8 ('C'est le bon') built on Aug 13 2009 12:49:06
Библиотека кодирования : libebml v0.7.7 + libmatroska v0.8.1
Видео
Идентификатор : 1
Формат : AVC
Формат/Информация : Advanced Video Codec
Профиль формата : High@L3.1
Параметр CABAC формата : Да
Параметр ReFrames формата : 5 кадров
Идентификатор кодека : V_MPEG4/ISO/AVC
Продолжительность : 1 ч. 51 м.
Битрейт : 4081 Кбит/сек
Ширина : 1280 пикселей
Высота : 720 пикселей
Соотношение сторон : 16:9
Режим частоты кадров : Постоянный
Частота кадров : 23,976 кадра/сек
Цветовое пространство : YUV
Субдискретизация насыщенности : 4:2:0
Битовая глубина : 8 бит
Тип развёртки : Прогрессивная
Бит/(Пиксели*Кадры) : 0.185
Размер потока : 3,08 Гбайт (62%)
Библиотека кодирования : x264 core 77 r1292 e381f6d
Настройки программы : cabac=1 / ref=5 / deblock=1:0:0 / analyse=0x3:0x113 / me=umh / subme=7 / psy=1 / psy_rd=1.0:0.0 / mixed_ref=1 / me_range=16 / chroma_me=1 / trellis=1 / 8x8dct=1 / cqm=0 / deadzone=21,11 / chroma_qp_offset=-2 / threads=6 / nr=0 / decimate=1 / mbaff=0 / constrained_intra=0 / bframes=3 / b_pyramid=1 / b_adapt=1 / b_bias=0 / direct=1 / wpredb=1 / keyint=250 / keyint_min=25 / scenecut=40 / rc=2pass / mbtree=0 / bitrate=4081 / ratetol=1.0 / qcomp=0.60 / qpmin=10 / qpmax=51 / qpstep=4 / cplxblur=20.0 / qblur=0.5 / ip_ratio=1.40 / pb_ratio=1.30 / aq=1:1.00
Язык : English
Default : Да
Forced : Нет
Аудио #1
Идентификатор : 2
Формат : DTS
Формат/Информация : Digital Theater Systems
Режим : 16
Параметр Endianness формата : Big
Идентификатор кодека : A_DTS
Продолжительность : 1 ч. 51 м.
Вид битрейта : Постоянный
Битрейт : 1509 Кбит/сек
Каналы : 6 каналов
Расположение каналов : Front: L C R, Side: L R, LFE
Частота : 48,0 КГц
Битовая глубина : 24 бит
Метод сжатия : С потерями
Размер потока : 1,17 Гбайт (24%)
Заголовок : Rus
Язык : Russian
Default : Да
Forced : Нет
Аудио #2
Идентификатор : 3
Формат : DTS
Формат/Информация : Digital Theater Systems
Режим : 16
Параметр Endianness формата : Big
Идентификатор кодека : A_DTS
Продолжительность : 1 ч. 51 м.
Вид битрейта : Постоянный
Битрейт : 755 Кбит/сек
Каналы : 6 каналов
Расположение каналов : Front: L C R, Side: L R, LFE
Частота : 48,0 КГц
Битовая глубина : 24 бит
Метод сжатия : С потерями
Размер потока : 601 Мбайт (12%)
Язык : English
Default : Нет
Forced : Нет
Текст
Идентификатор : 4
Формат : UTF-8
Идентификатор кодека : S_TEXT/UTF8
Идентификатор кодека/Информация : UTF-8 Plain Text
Язык : English
Default : Нет
Forced : Нет

_________________
[Торрент-статистика]
[Профиль]  [ЛС] 
Показать сообщения:    
Ответить на тему

Текущее время: Сегодня 16:11

Часовой пояс: GMT + 4



Вы не можете начинать темы
Вы не можете отвечать на сообщения
Вы не можете редактировать свои сообщения
Вы не можете удалять свои сообщения
Вы не можете голосовать в опросах
Вы не можете прикреплять файлы к сообщениям
Вы не можете скачивать файлы