Тайны Смолвиля / Smallville / Сезон 10 / Серии 1-22 (22) (Кевин Фэир / Kevin Fair) [2010-2011, фантастика, драма, HDRip 400p] MVO (Ю) + Original + Subs (Rus, Eng)

Ответить на тему
 
Автор
Сообщение

awk05 ®

Пол:

Стаж: 6 лет 4 месяца

Сообщений: 1348

Репутация: 275 [+] [-]

Откуда: Западная Украина Ривне

Пост 14-Янв-2014 00:20

[Цитировать] 

--Тайны Смолвиля / Smallville-- Год выпуска: 2010-2011
Страна: США
Жанр: фантастика, драма
Сезон/Серия: Сезон:10 /Серия 1-22 из 22
Продолжительность: 22 x ~ 00:44:00
Перевод: Профессиональный (многоголосый закадровый) - /Ю/
Субтитры: русские (swan), английские--Режиссер: Кевин Фэир (Kevin Fair)--В ролях: Том Уэллинг (Clark Kent), Эллисон Мэк (Chloe Sullivan), Кристин Кройк (Lana Lang), Майкл Розенбаум (Lex Luthor), Джон Гловер (Lionel Luthor), Аннетт О`Тул (Martha Kent), Джон Шнайдер (Jonathan Kent), Сэм Джонс III (Pete Ross)--Описание: Здесь начинается начало конца. Вступая в свой десятый и заключительный сезон, эта современная интерпретация легендарного происхождения героя продолжает смешивать реализм, действие, романтику и юмор в то время, как Кларк Кент (Том Уэллинг) стремится к своему предназначению.
Кларк вышел из своего самого темного часа, чтобы найти путь к своей судьбе, заслоненный призраками прошлого - тени настоящего пытаются заманить Кларка назад в темноту на каждом шагу. Несмотря на непреодолимые разногласия, достаточно ли силен Кларк, чтобы выбрать свет и занять свое законное место самого могущественного защитника Земли?
--Качество: HDRip 400p
Формат: AVI
Видео кодек: XviD
Аудио кодек: MP3
Видео: 720x400 (16:9), 23.976 fps, ~2000 Kbps, 0.290 bit/pixel
Аудио (rus): 48 kHz, AC3 Dolby Digital, 2/0 (L,R), ~192.00 kbps avg|Ю|
Аудио (eng): 48 kHz, AC3 Dolby Digital, 3/2 (L,C,R,l,r) + LFE ch, ~384.00 kbps avg-- --

Скриншоты

MI

Format : AVI
Format/Info : Audio Video Interleave
File size : 785 MiB
Duration : 42mn 23s
Overall bit rate : 2 590 Kbps
Writing application : VirtualDubMod 1.5.10.2 (build 2540/release)
Writing library : VirtualDubMod build 2540/release
Video
ID : 0
Format : MPEG-4 Visual
Format profile : Advanced Simple@L5
Format settings, BVOP : 1
Format settings, QPel : No
Format settings, GMC : No warppoints
Format settings, Matrix : Default (MPEG)
Codec ID : XVID
Codec ID/Hint : XviD
Duration : 42mn 23s
Bit rate : 2 000 Kbps
Width : 720 pixels
Height : 400 pixels
Display aspect ratio : 16:9
Frame rate : 23.976 fps
Color space : YUV
Chroma subsampling : 4:2:0
Bit depth : 8 bits
Scan type : Progressive
Compression mode : Lossy
Bits/(Pixel*Frame) : 0.290
Stream size : 606 MiB (77%)
Writing library : XviD 64
Audio #1
ID : 1
Format : AC-3
Format/Info : Audio Coding 3
Mode extension : CM (complete main)
Format settings, Endianness : Big
Codec ID : 2000
Duration : 42mn 23s
Bit rate mode : Constant
Bit rate : 192 Kbps
Channel(s) : 2 channels
Channel positions : Front: L R
Sampling rate : 48.0 KHz
Bit depth : 16 bits
Compression mode : Lossy
Stream size : 58.2 MiB (7%)
Alignment : Split accross interleaves
Interleave, duration : 42 ms (1.00 video frame)
Interleave, preload duration : 500 ms
Audio #2
ID : 2
Format : AC-3
Format/Info : Audio Coding 3
Mode extension : CM (complete main)
Format settings, Endianness : Big
Codec ID : 2000
Duration : 42mn 23s
Bit rate mode : Constant
Bit rate : 384 Kbps
Channel(s) : 6 channels
Channel positions : Front: L C R, Side: L R, LFE
Sampling rate : 48.0 KHz
Bit depth : 16 bits
Compression mode : Lossy
Stream size : 116 MiB (15%)
Alignment : Split accross interleaves
Interleave, duration : 42 ms (1.00 video frame)
Interleave, preload duration : 500 ms

_________________
[Торрент-статистика]
[Профиль]  [ЛС] 
Показать сообщения:    
Ответить на тему

Текущее время: Сегодня 00:18

Часовой пояс: GMT + 4



Вы не можете начинать темы
Вы не можете отвечать на сообщения
Вы не можете редактировать свои сообщения
Вы не можете удалять свои сообщения
Вы не можете голосовать в опросах
Вы не можете прикреплять файлы к сообщениям
Вы не можете скачивать файлы