Шерлок / Sherlock / Сезон: 3 / Серии: 1-3 из 3 (Джереми Лавринг / Jeremy Lovering) [2014 г., триллер, драма, криминал, детектив, HDTV 1080i] [Первый канал]

Ответить на тему
 
Автор
Сообщение

ArtZak ®

Пол:

Стаж: 7 лет 1 месяц

Сообщений: 2943

Репутация: 1364 [+] [-]

Откуда: Россия

Пост 08-Янв-2014 19:58

[Цитировать] 

Шерлок / Sherlock- Год выпуска: 2014
Страна: Великобритания
Жанр: триллер, драма, криминал, детектив
Сезон/Серия: сезон 3, серии 1-3 из 3
Продолжительность серии: 01:30:00 / Серия
Перевод: Профессиональный (полное дублирование) Первый канал
Cубтитры: русские (на надписи и иностранную речь) - hardsub (неотключаемые)
Оригинальная аудиодорожка: нет
Режиссер: Джереми Лавринг / Jeremy Lovering- -В ролях:
Бенедикт Камбербэтч, Мартин Фриман, Уна Стаббс, Руперт Грейвз, Лу Брили, Марк Гатисс, Эндрю Скотт, Винетт Робинсон, Таня Муди, Джонатан Арис и др.
Описание:
Совместная деятельность Шерлока и Джона подвергается испытанию, когда Джон влюбляется в Мэри Морстен. Она - восприимчивая, умная девушка, и демонстрация Холмсом своих талантов не производит на нее никакого впечатления. После смерти Мориарти, Холмс оказывается втянутым в битву с другим умным противником - могущественным Чарльзом Августом Магнуссеном, который держит в руках секреты всего мира. Для Шерлока и Джона снова начинается игра...
Эпизоды:
  • Пустой катафалк (The Empty Hearse)
  • Знак трёх (The Sign of Three)
  • Его последний обет (His Last Vow)
Тип релиза: HDTV 1080i | Сэмпл
Контейнер: MPEG-TS
Видео кодек: AVC
Аудио кодек: MP2
Видео: AVC, 1920x1080 (16:9), 25.000 fps, 5 824 Kbps (0.112 bit/pixel)
Аудио: MP2, 48.0 KHz, 2 ch, 256 Kbps, CBR

MI

Код:
General
ID                                       : 1 (0x1)
Complete name                            : Sherlok.(3.sezony.1.seriya.iz.3).2014.x264.HDTV.1080i.Nikolspup.ts
Format                                   : MPEG-TS
File size                                : 3.86 GiB
Duration                                 : 1h 26mn
Overall bit rate mode                    : Variable
Overall bit rate                         : 6 399 Kbps
Video
ID                                       : 69 (0x45)
Menu ID                                  : 1 (0x1)
Format                                   : AVC
Format/Info                              : Advanced Video Codec
Format profile                           : High@L4.1
Format settings, CABAC                   : Yes
Format settings, ReFrames                : 3 frames
Codec ID                                 : 27
Duration                                 : 1h 26mn
Bit rate                                 : 5 824 Kbps
Width                                    : 1 920 pixels
Height                                   : 1 080 pixels
Display aspect ratio                     : 16:9
Frame rate                               : 25.000 fps
Color space                              : YUV
Chroma subsampling                       : 4:2:0
Bit depth                                : 8 bits
Scan type                                : Progressive
Bits/(Pixel*Frame)                       : 0.112
Stream size                              : 3.51 GiB (91%)
Audio
ID                                       : 68 (0x44)
Menu ID                                  : 1 (0x1)
Format                                   : MPEG Audio
Format version                           : Version 1
Format profile                           : Layer 2
Codec ID                                 : 3
Duration                                 : 1h 26mn
Bit rate mode                            : Constant
Bit rate                                 : 256 Kbps
Channel count                            : 2 channels
Sampling rate                            : 48.0 KHz
Compression mode                         : Lossy
Stream size                              : 158 MiB (4%)
Language                                 : English

Скриншоты


Внимание! Раздача ведётся путём добавления новых серий!

Раздача ведётся путём добавления новых серий; при каждом добавлении создаётся новый торрент. Чтобы начать докачку новой серии, пользователям необходимо сделать следующее:
  • остановить скачивание,
  • удалить старый торрент у себя из клиента (старые серии удалять не надо),
  • скачать новый торрент и запустить его у себя в клиенте вместо старого, при этом указать клиенту путь в старую папку куда и должно происходить скачивание новых серий.
Ваш клиент при этом должен произвести хеширование (проверку) старой папки (если не производит сам - помогите ему сделать это), и будет докачивать только те серии которых у вас ещё нет. Старые серии при этом не удаляются, а продолжают раздаваться!
Eсли вы уже удалили старые серии, то предотвратить повторную закачку старых серий можно, отжав галочку в соответствующих местах при запуске нового торрента. По возможности, желательно не удалять старые серии как можно дольше чтобы релизёр не столько продолжал раздавать старые серии, а смог сконцентрироваться на новых.
[Торрент-статистика]
[Профиль]  [ЛС] 

ArtZak ®

Пол:

Стаж: 7 лет 1 месяц

Сообщений: 2943

Репутация: 1364 [+] [-]

Откуда: Россия

Пост 13-Янв-2014 16:59 (спустя 4 дня)

[Цитировать] 

Добавлена 3 серия. Сезон завершен.
[Торрент-статистика]
[Профиль]  [ЛС] 

sergei78

Пол:

Стаж: 5 лет 2 месяца

Сообщений: 90

Репутация: 120 [+] [-]

Откуда: Бывший СССР: "Связист Кстово 100/40"

Пост 13-Янв-2014 23:07 (спустя 6 часов)

[Цитировать] 

А 1 и 2 сезон планируется в 1080i?
[Торрент-статистика]
[Профиль]  [ЛС] 

ArtZak ®

Пол:

Стаж: 7 лет 1 месяц

Сообщений: 2943

Репутация: 1364 [+] [-]

Откуда: Россия

Пост 13-Янв-2014 23:11 (спустя 3 минуты)

[Цитировать] 

sergei78, если Вам нужно - выложим (если в природе существует).
[Торрент-статистика]
[Профиль]  [ЛС] 
Показать сообщения:    
Ответить на тему

Текущее время: Сегодня 15:40

Часовой пояс: GMT + 4



Вы не можете начинать темы
Вы не можете отвечать на сообщения
Вы не можете редактировать свои сообщения
Вы не можете удалять свои сообщения
Вы не можете голосовать в опросах
Вы не можете прикреплять файлы к сообщениям
Вы не можете скачивать файлы