Кодекс чести / Сезон: 2 / Серии: 1-12 из 12 ( Георгий Николаенко )[ 2004 г., Боевик, приключения, драма , DVDRip ]

Ответить на тему
 
Автор
Сообщение

awk05 ®

Пол:

Стаж: 4 года 11 месяцев

Сообщений: 1352

Репутация: 275 [+] [-]

Откуда: Западная Украина Ривне

Пост 06-Янв-2014 17:02

[Цитировать] 

-- Кодекс чести -- Год выпуска: 2004
Страна: Россия Студия 2В по заказу НТВ
Жанр: Боевик, приключения, драма
Сезон/Серия: Сезон: 2 Серии: 1-12 из 12
Продолжительность: 12 х ~ 00:43:00
Субтитры: нет--Режиссёр: Георгий Николаенко--В ролях: Игорь Лагутин, Юрий Назаров, Евгений Жариков, Борис Щербаков, Семен Морозов, Валерий Гаркалин, Олег Гущин, Виталий Зикора, Альберт Буров, Игнат Акрачков, Данила Перов, Геннадий Митник, Александр Олешко, Станислав Рядинский, Спартак Сумченко, Анна Казючиц--Описание: Их было семеро, во время первой чеченской войны все они были членами одной из самых сильных диверсионно-разведывательных групп. Весной 1996 года их уволили из армии с формулировкой "за невыполнение боевого приказа". Настоящая же причина была в том, что приказ был изначально преступным. Семеро молодых офицеров (старшему, Доку, чуть больше тридцати пяти лет, остальным нет и тридцати), профессиональных диверсантов супер-класса, оказались вышвырнутыми в мирную жизнь. И каждый попытался в ней как-то устроится. Капитан спецназа Пастухов пас коров в деревеньке Затопино, военный хирург Док работал санитаром на "скорой", Муха продавал в электричках газеты, а Артист безуспешно пытался пристроиться в каком-нибудь театре. Однако для спецов такого класса работа найдётся и на гражданке. В их помощи нуждаются как военные, так и гражданские лица — и по первому зову бывшего боевого командира друзья, живущие своей «гражданской» жизнью, вновь собираются вместе и выполняют, как прежде, самые сложные и опасные задания… Так бы все и продолжалось, но некой спецслужбе, условно названной УПСМ (Управление по планированию специальных мероприятий), понадобились исполнители для операции, главным условием которой была конспиративность. Бывшая команда Сергея Пастухова отвечает всем требованиям. Так начинается сотрудничество наших героев с УПСМ. В рискованные дела вовлекают их и другие силы. Но они - не наемники, хотя в шутку и называют себя "солдатами удачи".--Качество: DVDRip
Формат: AVI
Видео кодек:: DivX 5
Аудио кодек:: MP3
Видео: 576х432 , 4:3 , 25.000 fps , ~998 kbps avg , 0.134 bit/pixel
Аудио : 2 channels , 48 kHz , 128 kbps avg-- --

MediaInfo

"General
Complete name : E:\Films\kodeks.chesti 2, 1-12 serij\kodeks.chesti2.cd1..avi
Format : AVI
Format/Info : Audio Video Interleave
File size : 350 MiB
Duration : 43mn 4s
Overall bit rate : 1 138 Kbps
Video
ID : 0
Format : MPEG-4 Visual
Format settings, BVOP : 1
Format settings, QPel : No
Format settings, GMC : No warppoints
Format settings, Matrix : Default (H.263)
Muxing mode : Packed bitstream
Codec ID : DX50
Codec ID/Hint : DivX 5
Duration : 43mn 4s
Bit rate : 998 Kbps
Width : 576 pixels
Height : 432 pixels
Display aspect ratio : 4:3
Frame rate : 29.970 fps
Color space : YUV
Chroma subsampling : 4:2:0
Bit depth : 8 bits
Scan type : Progressive
Compression mode : Lossy
Bits/(Pixel*Frame) : 0.134
Stream size : 307 MiB (88%)
Title : Video
Writing library : DivX 5.2.1 Alpha (UTC 2004-09-08)
Audio
ID : 1
Format : MPEG Audio
Format version : Version 1
Format profile : Layer 3
Codec ID : 55
Codec ID/Hint : MP3
Duration : 43mn 4s
Bit rate mode : Constant
Bit rate : 128 Kbps
Channel count : 2 channels
Sampling rate : 48.0 KHz
Compression mode : Lossy
Stream size : 39.4 MiB (11%)
Alignment : Split accross interleaves
Interleave, duration : 33 ms (1.00 video frame)
Interleave, preload duration : 500 ms
Title : Audio

Список серий

"1-2 серии. ""Свидетель должен умереть""
Пастух и ребята охраняют важного свидетеля — бывшего чеченского полевого командира Рустема Битарова. У него находятся важные документы, изобличающие высших продажных чиновников — номера их банковских счетов, имена, фамилии. Однако, не все хотят видеть свидетеля живым...
3-4 серии. ""Живыми или мертвыми""
Город потрясла серия громких заказных убийств. Жертвы — высокопоставленные чиновники, члены правительства. На Пастухова выходят некие влиятельные люди и просят его разобраться в этом деле. Пастух с командой начинают распутывать цепочку загадочных убийств и вскоре узнают о подготовке государственного переворота. Но они даже представить себе не могут, что стоит за этим заговором...
5-6 серии. ""Игра на выживание""
Компания крупных бизнесменов и влиятельных политиков собирается в подмосковном лесу, чтобы поиграть в пейнтбол. Вот только правила игры здесь другие: на поле выходит две команды, а выходит только одна… Пастух получает приглашение принять участие в этой ""игре""...
7-8 серии. ""Эмбарго на женщин""
Современные работорговцы нелегально продают девушек из России в Европу и Азию. В одну из партий живого товара попадает дочка крупного бизнесмена. Неизвестный «доброжелатель» сообщает об этом несчастному отцу, но выкупа не требует. Бизнесмен обращается за помощью к Пастуху...
9-10 серии. ""Корпорация""
В детективное агентство ""Трио"" приходит очередной клиент, который просит найти доказательства неверности своей жены. Но его жена оказывается подругой жены Пастуха, и он отказывает клиенту. Товарищи обижаются на то, что Пастух принял решение единолично. Они ссорятся, и Пастух решает прекратить свою деятельность в агентстве...
11-12 серии. ""Банкиры предпочитают умереть""
Голубев дает задание ""ТРИО"" прикрыть банкира Лазарева, у которого вымогают миллион долларов. В квартире у Лазарева убийца стреляет в Дока, пришедшего в качестве телохранителя и уходит, получив от Лазарева деньги. В это время с Пастухом, Тимохой и Максом встречается женщина, представившаяся женой Лазарева, и говорит, что мужа похитили и требуют выкуп. Двое едут за деньгами, а Макс идет в квартиру банкира и находит раненого Дока и женский труп в ванной. Тут Макса и примчавшегося на помощь Пастуха вяжут люди в камуфляже. Их арестовывают, и следователь ""прессует"" их, обвиняя в убийстве банкира, его жены и похищении трех миллионов долларов. В это время невредимый Лазарев посылает на встречу своего брата-близнеца, недавно приехавшего из Сибири, и того убивают... Лазарев, заказывает фальшивый заграничный паспорт на имя Усачева Сергея Ивановича у подпольного фотографа..."
«СЕЗОН 1» «СЕЗОН 2» «СЕЗОН 3» «СЕЗОН 4» «СЕЗОН 5» «СЕЗОН 6»

_________________
[Торрент-статистика]
[Профиль]  [ЛС] 
Показать сообщения:    
Ответить на тему

Текущее время: Сегодня 03:00

Часовой пояс: GMT + 4



Вы не можете начинать темы
Вы не можете отвечать на сообщения
Вы не можете редактировать свои сообщения
Вы не можете удалять свои сообщения
Вы не можете голосовать в опросах
Вы не можете прикреплять файлы к сообщениям
Вы не можете скачивать файлы