Преследование / Chase / Сезон 1 / Серии 1-18 (18) (Дермотт Даунс, Холли Дэйл, Эгил Эгилссон) [2010-2011 гг., драма, криминал, HDTVRip 720p] MVO (ТВ3 Россия)

Ответить на тему
 
Автор
Сообщение

awk05 ®

Пол:

Стаж: 6 лет 6 месяцев

Сообщений: 1347

Репутация: 275 [+] [-]

Откуда: Западная Украина Ривне

Пост 04-Янв-2014 21:48

[Цитировать] 

--Преследование / Chase--«To catch the worst, it takes the best.»-- Год выпуска: 2010-2011 гг.
Страна: США
Жанр: драма, криминал
Сезон/Серия: Сезон:1 /Серия 1-18 из 18
Продолжительность: 18 х~ 00:45:00
Перевод: Профессиональный (многоголосый, закадровый) /ТВ3 Россия/ + Original
Субтитры: есть (Английские)--Режиссер: Дермотт Даунс, Холли Дэйл, Эгил Эгилссон--В ролях: Келли Гидиш, Коул Хаузер, Джесси Меткалф, Амори Ноласко, Роуз Роллинз, Трэвис Фиммел, Тодд Аллен, Сидни Свини, Кимберли Линн Кэмпбелл, Дэннис Кейффер...--Описание: События сериала происходят в Соединенных Штатах Америки. Зрители становятся участниками игры в кошки-мышки между судебными приставами и опасными беглецами. Главная героиня сериала — очень мудрая и опытная женщина, без которой не может обойтись Америка, так как она помогает поймать опасных преступников, к тому же она носит великолепные ковбойские сапоги, которые безумно ей идут…-- --Качество: HDTV 720p
Формат: MKV [сэмпл]
Видео кодек: H.264
Аудио кодек: AC3
Видео: 1280x720, 23.976 fps, ~3270 kbps, 0.145 bit/pixel
Аудио #1: AC3 2.0, 48 KHz, 192 kbps avg |ТВ3 Россия|
Аудио #2: AC3 5.1, 48 KHz, 384 kbps avg |Original|--Озвучка: ТВ3 Россия
Запись звука: NewStudio
Подготовка видео: svm-mfs
Постер: Vortex--

Скриншоты

Список серий

-- 20.09.2010 - 01 - Pilot
- 27.09.2010 - 02 - Repo
- 04.10.2010 - 03 - The Comeback Kid
- 11.10.2010 - 04 - Paranoia
- 18.10.2010 - 05 - Above the Law
- 25.10.2010 - 06 - Havoc
- 08.11.2010 - 07 - The Posse
- 15.11.2010 - 08 - The Longest Night
- 22.11.2010 - 09 - Crazy Love
- 29.11.2010 - 10 - Under The Radar
- 06.12.2010 - 11 - Betrayed
- 19.01.2011 - 12 - Narco (1)
- 26.01.2011 - 13 - Narco (2)
- 23.04.2011 - 14 - Father Figure
- 30.04.2011 - 15 - Seven Years
- 07.05.2011 - 16 - Roundup
- 14.05.2011 - 17 - The Man at the Altar
- 21.05.2011 - 18 - Annie-

MI

Код:
General
Complete name : C:\Chase - S1 - [HDTV 720p] (MVO - ТВ3)\Chase.S01E01.720p.HDTV.Rus.TV3.Eng.mkv
Format : Matroska
File size : 1.15 GiB
Duration : 42mn 42s
Overall bit rate : 3 854 Kbps
Encoded date : UTC 2012-02-05 07:17:56
Writing application : mkvmerge v3.3.0 ('Language') built on Mar 24 2010 14:59:24
Writing library : libebml v0.8.0 + libmatroska v0.9.0
Video
ID : 1
Format : AVC
Format/Info : Advanced Video Codec
Format profile : High@L4.1
Format settings, CABAC : Yes
Format settings, ReFrames : 5 frames
Muxing mode : Container profile=Unknown@4.1
Codec ID : V_MPEG4/ISO/AVC
Duration : 42mn 40s
Bit rate : 3 202 Kbps
Nominal bit rate : 3 275 Kbps
Width : 1 280 pixels
Height : 720 pixels
Display aspect ratio : 16:9
Frame rate : 23.976 fps
Resolution : 8 bits
Colorimetry : 4:2:0
Scan type : Progressive
Bits/(Pixel*Frame) : 0.145
Stream size : 977 MiB (83%)
Writing library : x264 core 102 r1666 d058f37
Encoding settings : cabac=1 / ref=5 / deblock=1:-1:-1 / analyse=0x3:0x113 / me=umh / subme=8 / psy=1 / psy_rd=1.00:0.00 / mixed_ref=1 / me_range=16 / chroma_me=1 / trellis=1 / 8x8dct=1 / cqm=0 / deadzone=21,11 / fast_pskip=0 / chroma_qp_offset=-2 / threads=16 / sliced_threads=0 / nr=0 / decimate=1 / interlaced=0 / constrained_intra=0 / bframes=3 / b_pyramid=2 / b_adapt=1 / b_bias=0 / direct=3 / weightb=1 / open_gop=0 / weightp=2 / keyint=250 / keyint_min=25 / scenecut=40 / intra_refresh=0 / rc_lookahead=40 / rc=2pass / mbtree=1 / bitrate=3275 / ratetol=1.0 / qcomp=0.60 / qpmin=10 / qpmax=51 / qpstep=4 / cplxblur=20.0 / qblur=0.5 / ip_ratio=1.40 / aq=1:1.10
Language : English
Audio #1
ID : 2
Format : AC-3
Format/Info : Audio Coding 3
Codec ID : A_AC3
Duration : 42mn 42s
Bit rate mode : Constant
Bit rate : 192 Kbps
Channel(s) : 2 channels
Channel positions : L R
Sampling rate : 48.0 KHz
Stream size : 58.7 MiB (5%)
Title : AC3 2.0 @ 192 kbps - ТВ3 (MVO)
Language : Russian
Audio #2
ID : 3
Format : AC-3
Format/Info : Audio Coding 3
Codec ID : A_AC3
Duration : 42mn 42s
Bit rate mode : Constant
Bit rate : 384 Kbps
Channel(s) : 6 channels
Channel positions : Front: L C R, Surround: L R, LFE
Sampling rate : 48.0 KHz
Stream size : 117 MiB (10%)
Title : AC3 5.1 @ 384 kbps - English
Language : English
Text
ID : 4
Format : UTF-8
Codec ID : S_TEXT/UTF8
Codec ID/Info : UTF-8 Plain Text
Language : English

_________________
[Торрент-статистика]
[Профиль]  [ЛС] 
Показать сообщения:    
Ответить на тему

Текущее время: Сегодня 15:46

Часовой пояс: GMT + 4



Вы не можете начинать темы
Вы не можете отвечать на сообщения
Вы не можете редактировать свои сообщения
Вы не можете удалять свои сообщения
Вы не можете голосовать в опросах
Вы не можете прикреплять файлы к сообщениям
Вы не можете скачивать файлы