Юристы Бостона / Boston Legal / Сезон: 4 / Серия 1-20 из 20 ( Дэвид Э. Келли, Стив Робин, Билл Д`Илайн )[ 2007 г., Драма, комедия , HDTVRip 720p] MVO (НТВ Плюс) + Original

Ответить на тему
 
Автор
Сообщение

awk05 ®

Пол:

Стаж: 6 лет 5 месяцев

Сообщений: 1347

Репутация: 275 [+] [-]

Откуда: Западная Украина Ривне

Пост 02-Янв-2014 18:45

[Цитировать] 

-- Юристы Бостона / Boston Legal -- Год выпуска: 2007
Страна: США
Жанр: Драма, комедия
Сезон/Серия: Сезон: 4 Серия 1-12 из 20
Перевод: профессиональный многоголосый закадровый (НТВ Плюс)
Продолжительность: 20 х ~ 01:04:00
Субтитры: нет--Режиссёр: Дэвид Э. Келли, Стив Робин, Билл Д`Илайн--В ролях: Джеймс Спейдер (Алан Шор), Уильям Шэтнер (Дэнни Крейн), Кэндис Берген (Ширли Шмидт), Марк Вэлли (Брэд Чейз), Рене Оберженуа (Пол Льюистон), Моника Поттер (Лори Колсон), Рона Митра (Тара Уилсон), Лэйк Белл (Салли Хип).--Описание: В каждой профессии бывают посредственности, бывают подающие надежды, а бывают - настоящие профи. В бостонской юридической фирме ""Крейн, Пул и Шмидт"" ни те, ни другие, ни третьи не нужны, потому что таких полно повсюду. В ""Крейн, Пул и Шмидт"" работают только те, кто готов обставить всех и вся в искусстве манипуляции законом и правосудием. Денни Крейн, матёрый адвокат и духовный лидер всей компании, задаёт своим мастерством тон работе всей конторы. Алан Шор, молодой и гениальный адвокат, который способен в один момент обойти закон, а в другой - защитить слабого с его помощью. Эти герои берутся за любое дело и заранее знают, что его не проиграют.
Искромётный юмор и неожиданные повороты сюжета - вот те две составляющие отличного сериала, благодаря которым вы не оторвётесь от экрана, пока судья не стукнет молотком по столу и не скажет ""Слушание окончено"".--Качество: HDTVRip 720p
Формат: MKV
Видео кодек: H.264
Аудио кодек: AC3
Видео: 1280x720 (1.778), 23.976 fps, ~ 3300 Kbps, 0.150 bit/pixel
Аудио 1: AC-3 48 kHz, 2 ch, 192 kbps / НТВ Плюс /
Аудио 2: AC-3 48 kHz, 6 ch, 384 kbps / Оригинал /-- --

Тех. данные (MI)

Общее
Уникальный идентификатор : 190604759353697503440860206250878513762 (0x8F6524300D11EEA788FB878A326F3262)
Полное имя : D:\Torrent\Serials\Boston Legal\Boston Legal S04 HDTV 720p\Boston.Legal.s04e02.HDTV.720p.rus(NTV).eng The Innocent Man.mkv
Формат : Matroska
Версия формата : Version 2
Размер файла : 1,13 Гбайт
Продолжительность : 41 м.
Общий поток : 3864 Кбит/сек
Дата кодирования : UTC 2013-02-01 12:32:51
Программа кодирования : mkvmerge v5.8.0 ('No Sleep / Pillow') built on Sep 2 2012 15:37:04
Библиотека кодирования : libebml v1.2.3 + libmatroska v1.3.0
Видео
Идентификатор : 1
Формат : AVC
Формат/Информация : Advanced Video Codec
Профиль формата : High@L5.1
Параметр CABAC формата : Да
Параметр ReFrames формата : 6 кадров
Идентификатор кодека : V_MPEG4/ISO/AVC
Продолжительность : 41 м.
Битрейт : 3286 Кбит/сек
Ширина : 1280 пикселей
Высота : 720 пикселей
Соотношение сторон : 16:9
Режим частоты кадров : Постоянный
Частота кадров : 23,976 кадра/сек
Цветовое пространство : YUV
Субдискретизация насыщенности : 4:2:0
Битовая глубина : 8 бит
Тип развёртки : Прогрессивная
Бит/(Пиксели*Кадры) : 0.149
Размер потока : 961 Мбайт (83%)
Библиотека кодирования : x264 core 56 svn-676
Настройки программы : cabac=1 / ref=3 / deblock=1:-1:0 / analyse=0x3:0x133 / me=hex / subme=6 / brdo=0 / mixed_ref=0 / me_range=16 / chroma_me=1 / trellis=1 / 8x8dct=1 / cqm=0 / deadzone=21,11 / chroma_qp_offset=0 / threads=12 / nr=0 / decimate=1 / mbaff=0 / bframes=3 / b_pyramid=1 / b_adapt=1 / b_bias=0 / direct=1 / wpredb=1 / bime=1 / keyint=240 / keyint_min=24 / scenecut=40(pre) / rc=2pass / bitrate=3286 / ratetol=1.0 / rceq='blurCplx^(1-qComp)' / qcomp=0.60 / qpmin=10 / qpmax=51 / qpstep=4 / cplxblur=20.0 / qblur=0.5 / ip_ratio=1.40 / pb_ratio=1.30
Язык : English
Default : Нет
Forced : Нет
Аудио #1
Идентификатор : 2
Формат : AC-3
Формат/Информация : Audio Coding 3
Расширение режима : CM (complete main)
Параметр Endianness формата : Big
Идентификатор кодека : A_AC3
Продолжительность : 41 м.
Вид битрейта : Постоянный
Битрейт : 192 Кбит/сек
Каналы : 2 канала
Расположение каналов : Front: L R
Частота : 48,0 КГц
Битовая глубина : 16 бит
Метод сжатия : С потерями
Размер потока : 57,5 Мбайт (5%)
Заголовок : НТВ Плюс
Язык : Russian
Default : Да
Forced : Нет
Аудио #2
Идентификатор : 3
Формат : AC-3
Формат/Информация : Audio Coding 3
Расширение режима : CM (complete main)
Параметр Endianness формата : Big
Идентификатор кодека : A_AC3
Продолжительность : 41 м.
Вид битрейта : Постоянный
Битрейт : 384 Кбит/сек
Каналы : 6 каналов
Расположение каналов : Front: L C R, Side: L R, LFE
Частота : 48,0 КГц
Битовая глубина : 16 бит
Метод сжатия : С потерями
Размер потока : 115 Мбайт (10%)
Язык : English
Default : Нет
Forced : Нет

Скриншоты

«СЕЗОН 1» «СЕЗОН 2» «СЕЗОН 3» «СЕЗОН 4» «СЕЗОН 5»

_________________
[Торрент-статистика]
[Профиль]  [ЛС] 
Показать сообщения:    
Ответить на тему

Текущее время: Сегодня 10:04

Часовой пояс: GMT + 4



Вы не можете начинать темы
Вы не можете отвечать на сообщения
Вы не можете редактировать свои сообщения
Вы не можете удалять свои сообщения
Вы не можете голосовать в опросах
Вы не можете прикреплять файлы к сообщениям
Вы не можете скачивать файлы