Юристы Бостона / Boston Legal / Сезон: 3 / Серии: 01-24 (24) (Дэвид Э. Келли, Стив Робин, Билл Д`Илайн) [2006, драма, комедия, DVDRip] MVO (НТВ Плюс)

Ответить на тему
 
Автор
Сообщение

awk05 ®

Пол:

Стаж: 8 лет 8 месяцев

Сообщений: 1334

Репутация: 278 [+] [-]

Откуда: Западная Украина Ривне

Пост 02-Янв-2014 17:49

[Цитировать] 

-- Юристы Бостона / Boston Legal -- Год выпуска: 2006
Страна: США
Жанр: Драма, комедия
Сезон/Серия: Сезон: 3 Серия 1-24 из 24
Перевод: профессиональный многоголосый закадровый (НТВ Плюс)
Продолжительность: 24 х ~ 00:42:00
Субтитры: нет--Режиссёр: Дэвид Э. Келли, Стив Робин, Билл Д`Илайн--В ролях: Джеймс Спейдер (Алан Шор), Уильям Шэтнер (Дэнни Крейн), Кэндис Берген (Ширли Шмидт), Марк Вэлли (Брэд Чейз), Рене Оберженуа (Пол Льюистон), Моника Поттер (Лори Колсон), Рона Митра (Тара Уилсон), Лэйк Белл (Салли Хип).--При участии: Кристиан Клеменсон (Джерри Эспенсон), Майкл Дж. Фокс (Дэниел Пост), Генри Гибсон (судья Кларк Браун), Мередит Итон (Бетани Хоровиц), Лэйк Белл (Салли Хип), Эштон Холмс (Скотт Литл).--Описание: "В каждой профессии бывают посредственности, бывают подающие надежды, а бывают - настоящие профи. В бостонской юридической фирме ""Крейн, Пул и Шмидт"" ни те, ни другие, ни третьи не нужны, потому что таких полно повсюду. В ""Крейн, Пул и Шмидт"" работают только те, кто готов обставить всех и вся в искусстве манипуляции законом и правосудием. Денни Крейн, матёрый адвокат и духовный лидер всей компании, задаёт своим мастерством тон работе всей конторы. Алан Шор, молодой и гениальный адвокат, который способен в один момент обойти закон, а в другой - защитить слабого с его помощью. Эти герои берутся за любое дело и заранее знают, что его не проиграют.
Искромётный юмор и неожиданные повороты сюжета - вот те две составляющие отличного сериала, благодаря которым вы не оторвётесь от экрана, пока судья не стукнет молотком по столу и не скажет ""Слушание окончено""."--Качество: DVDRip
Формат: AVI
Видео кодек:: XviD
Аудио кодек:: MP3
Видео: 640х352 , 16:9 , 23.976 fps , ~942 kbps avg , 0.174 bit/pixel
Аудио 1: 2 channels , 48 kHz , 192 kbps avg |НТВ Плюс|
Аудио 2: 2 channels , 48 kHz , 192 kbps avg |English|-- --

MediaInfo

Общее
Полное имя : D:\Boston Legal 3 NTV\Boston Legal 03-01 NTV.avi
Формат : AVI
Формат/Информация : Audio Video Interleave
Размер файла : 409 Мбайт
Продолжительность : 42 м.
Общий поток : 1341 Кбит/сек
Программа кодирования : VirtualDubModRus 1.5.10.2 (build 2540/release)
Библиотека кодирования : VirtualDubMod build 2540/release
Видео
Идентификатор : 0
Формат : MPEG-4 Visual
Профиль формата : Simple@L3
Параметр BVOP формата : 2
Параметр QPel формата : Нет
Параметр GMC формата : Без точки перехода
Параметр матрицы формата : Default (H.263)
Режим смешивания : Сжатый битовый поток
Идентификатор кодека : XVID
Идентификатор кодека/Подсказка : XviD
Продолжительность : 42 м.
Битрейт : 942 Кбит/сек
Ширина : 640 пикселей
Высота : 352 пикселя
Соотношение сторон : 16:9
Частота кадров : 23,976 кадра/сек
Цветовое пространство : YUV
Субдискретизация насыщенности : 4:2:0
Битовая глубина : 8 бит
Тип развёртки : Прогрессивная
Бит/(Пиксели*Кадры) : 0.174
Размер потока : 287 Мбайт (70%)
Библиотека кодирования : XviD 1.0.3 (UTC 2004-12-20)
Аудио #1
Идентификатор : 1
Формат : MPEG Audio
Версия формата : Version 1
Профиль формата : Layer 3
Режим : Joint stereo
Расширение режима : MS Stereo
Идентификатор кодека : 55
Идентификатор кодека/Подсказка : MP3
Продолжительность : 42 м.
Вид битрейта : Постоянный
Битрейт : 192 Кбит/сек
Каналы : 2 канала
Частота : 48,0 КГц
Размер потока : 58,5 Мбайт (14%)
Выравнивание : Разделение по промежуткам
Продолжительность промежутка : 42 мс. (1,00 видеокадр)
Время предзагрузки промежутка : 500 мс.
Аудио #2
Идентификатор : 2
Формат : MPEG Audio
Версия формата : Version 1
Профиль формата : Layer 3
Режим : Joint stereo
Расширение режима : MS Stereo
Идентификатор кодека : 55
Идентификатор кодека/Подсказка : MP3
Продолжительность : 42 м.
Вид битрейта : Постоянный
Битрейт : 192 Кбит/сек
Каналы : 2 канала
Частота : 48,0 КГц
Размер потока : 58,5 Мбайт (14%)
Выравнивание : Разделение по промежуткам
Продолжительность промежутка : 42 мс. (1,00 видеокадр)
Время предзагрузки промежутка : 500 мс.

Список серий

01.Can't We All Get a Lung?
02. New Kids on the Block
03.Desperately Seeking Shirley
04.Fine Young Cannibal
05.Whose God Is It Anyway?
06.The Verdict
07.Trick or Treat
08.Lincoln: Part 1
09.On the Ledge: Part 2
10.The Nutcrackers
11.Angel of Death
12.Nuts
13.Dumping Bella
14.Selling Sickness
15.Fat Burner
16.The Good Lawyer
17.The Bride Wore Blood
18.Son of the Defender
19.Brotherly Love
20.Guise 'n Dolls
21.Tea and Sympathy
22.Guantanamo by the Bay
23.Duck and Cover
24.Trial of the Century

Скриншоты

«СЕЗОН 1» «СЕЗОН 2» «СЕЗОН 3» «СЕЗОН 4» «СЕЗОН 5»

_________________
[Торрент-статистика]
[Профиль]  [ЛС] 
Показать сообщения:    
Ответить на тему

Текущее время: Сегодня 12:34

Часовой пояс: GMT + 4



Вы не можете начинать темы
Вы не можете отвечать на сообщения
Вы не можете редактировать свои сообщения
Вы не можете удалять свои сообщения
Вы не можете голосовать в опросах
Вы не можете прикреплять файлы к сообщениям
Вы не можете скачивать файлы