Убежище / Sanctuary / Сезон 1 / Серии 1-13 из 13 (Мартин Вуд, Стивен А. Эделсон, Брентон Спенсер) [2008, фантастика, криминал, детектив, HDRip] ТВ3

Ответить на тему
 
Автор
Сообщение

awk05 ®

Пол:

Стаж: 6 лет 1 месяц

Сообщений: 1351

Репутация: 275 [+] [-]

Откуда: Западная Украина Ривне

Пост 28-Дек-2013 00:16

[Цитировать] 

--Убежище / Sanctuary«Они ищут тех, кто прячется...»-- Год выпуска: 2008
Страна: США, Канада
Жанр: фантастика, криминал, детектив
Сезон/Серия: Сезон:1 /Серия 1-13 из 13
Продолжительность: 13 x ~00:43:00
Перевод: профессиональный многоголосый закадровый + Original
Озвучка / Автор перевода: ТВ3
Русские субтитры: нет--Режиссёр: Мартин Вуд, Стивен А. Эделсон, Брентон Спенсер--В ролях: Аманда Таппинг, Робин Данн, Кристофер Хейердал, Леа Кейрнс, Миранда Фригон, Лаура Меннелл, Райан Роббинс, Питер ДеЛуис.--Описание:«Убежище» — это сериал о приключениях красивой, загадочной и всегда удивительной доктора Хелен Магнус и её новых помощников: бывшего судебного психиатра доктора Уилла Циммермана, технического гения Генри, её дочери Эшли и мошенницы Кейт Фрилендер. Вместе они выслеживают, изучают и охраняют странных и часто страшных существ, которые тайно заполонили наш мир и живут среди нас. Вместе с Магнус Уилл, Эшли и Генри, а позже и с Кейт используют уникальное сочетание инстинктов, медицины и передовых технологий, чтобы найти существ, которые скрываются в уголках нашей цивилизации, и защитить нас от тех, кто слишком опасен, или защитить от нас их.--Качество видео: HDRip
Формат видео: AVI
Видео кодек: MPEG4, XviD
Аудио кодек: AC-3
Видео: MPEG4, XviD, 720x400 (16:9), 23.976 fps, 639 Kbps (0.093 bit/pixel)
Аудио 1: AC-3, 48.0 KHz, 2 ch, 192 Kbps, CBR, 16 bits [Русский]
Аудио 2: AC-3, 48.0 KHz, 2 ch, 192 Kbps, CBR, 16 bits [Английский] -- --

Список серий

01. Конец ночей. Часть 1(End of Nights: Part 1)
02. Конец ночей. Часть 2(End of Nights: Part 2)
03. Надгробная речь(Eulogy)
04. Герой(Hero)
05. Ночные кошмары(Pavor Nocturnus)
06. Фрагменты(Fragments)
07. Веритас(Veritas)
08. Следующий Вторник(Next Tuesday)
09. Епитимия(Penance)
10. Спящие(Sleepers)
11. Призрак (Haunted)
12. Кали. Часть 1 (Kali (Part 1)
13. Кали. Часть 2 (Kali (Part 2)

Скриншоты



MediaInfo

Код:
Общее
Полное имя                               : E:\тест\Убежище.1 сезон.тв3\Sanctuary.s01e01.filmgate.tv.avi
Формат                                   : AVI
Формат/Информация                        : Audio Video Interleave
Размер файла                             : 359 Мбайт
Продолжительность                        : 48 м.
Общий поток                              : 1038 Кбит/сек
Программа кодирования                    : VirtualDubModRus 1.5.10.2 (build 2542/release)
Библиотека кодирования                   : VirtualDubMod build 2542/release
Видео
Идентификатор                            : 0
Формат                                   : MPEG-4 Visual
Профиль формата                          : Advanced Simple@L5
Параметр BVOP формата                    : 5
Параметр QPel формата                    : Нет
Параметр GMC формата                     : Без точки перехода
Параметр матрицы формата                 : Default (H.263)
Режим смешивания                         : Сжатый битовый поток
Идентификатор кодека                     : XVID
Идентификатор кодека/Подсказка           : XviD
Продолжительность                        : 48 м.
Битрейт                                  : 639 Кбит/сек
Ширина                                   : 720 пикселей
Высота                                   : 400 пикселей
Соотношение сторон                       : 16:9
Частота кадров                           : 23,976 кадра/сек
Цветовое пространство                    : YUV
Субдискретизация насыщенности            : 4:2:0
Битовая глубина                          : 8 бит
Тип развёртки                            : Прогрессивная
Метод сжатия                             : С потерями
Бит/(Пиксели*Кадры)                      : 0.093
Размер потока                            : 221 Мбайт (62%)
Библиотека кодирования                   : XviD 57
Аудио #1
Идентификатор                            : 1
Формат                                   : MPEG Audio
Версия формата                           : Version 1
Профиль формата                          : Layer 3
Режим                                    : Joint stereo
Идентификатор кодека                     : 55
Идентификатор кодека/Подсказка           : MP3
Продолжительность                        : 48 м.
Вид битрейта                             : Постоянный
Битрейт                                  : 192 Кбит/сек
Каналы                                   : 2 канала
Частота                                  : 48,0 КГц
Метод сжатия                             : С потерями
Размер потока                            : 66,5 Мбайт (19%)
Выравнивание                             : Разделение по промежуткам
Продолжительность промежутка             : 42  мс. (1,00 видеокадр)
Время предзагрузки промежутка            : 500  мс.
Аудио #2
Идентификатор                            : 2
Формат                                   : MPEG Audio
Версия формата                           : Version 1
Профиль формата                          : Layer 3
Режим                                    : Joint stereo
Идентификатор кодека                     : 55
Идентификатор кодека/Подсказка           : MP3
Продолжительность                        : 48 м.
Вид битрейта                             : Постоянный
Битрейт                                  : 192 Кбит/сек
Каналы                                   : 2 канала
Частота                                  : 48,0 КГц
Метод сжатия                             : С потерями
Размер потока                            : 66,5 Мбайт (19%)
Выравнивание                             : Разделение по промежуткам
Продолжительность промежутка             : 42  мс. (1,00 видеокадр)
Время предзагрузки промежутка            : 500  мс.
«СЕЗОН 1» «СЕЗОН 2» «СЕЗОН 3» «СЕЗОН 4»

_________________
[Торрент-статистика]
[Профиль]  [ЛС] 
Показать сообщения:    
Ответить на тему

Текущее время: Сегодня 15:00

Часовой пояс: GMT + 4



Вы не можете начинать темы
Вы не можете отвечать на сообщения
Вы не можете редактировать свои сообщения
Вы не можете удалять свои сообщения
Вы не можете голосовать в опросах
Вы не можете прикреплять файлы к сообщениям
Вы не можете скачивать файлы