Убийство / The Killing / Сезон: 1 / Серии: 1-13 (13) (Эдвард Бьянчи, Фил Абрахам, Агнешка Холланд) [2011, Драма, криминал, детектив, BDRip] MVO (LostFilm) + Original + rus sub

Ответить на тему
 
Автор
Сообщение

awk05 ®

Пол:

Стаж: 6 лет 4 месяца

Сообщений: 1348

Репутация: 275 [+] [-]

Откуда: Западная Украина Ривне

Пост 25-Дек-2013 23:16

[Цитировать] 

--Убийство / The Killing-- Год выпуска: 2011
Страна: США, Канада
Жанр: Драма, криминал, детектив
Сезон/Серия: Сезон:1 /Серия 1-13 из 13
Продолжительность: 13 х ~ 00:45:00
Перевод: Профессиональный многоголосый закадровый [LostFilm] + Original
Субтитры: Русские [TrueTransLate]--Режиссёр: Эдвард Бьянчи, Фил Абрахам, Агнешка Холланд--В ролях: Мирей Инос, Юэль Киннаман, Брент Секстон, Мишель Форбс, Билл Кэмпбелл, Кристин Леман, Брэндон Джей МакЛарен, Том Батлер, Гари Чок, Кэти Файндлей--Описание: Сериал рассказывает об одном убийстве с трех точек зрения — детективов, приставленных к этому делу, семьи погибшей и подозреваемых. Сюжет также затрагивает местных политиков и их связь с этим делом. Постепенно становится ясно, что здесь нет случайностей, у каждого свой секрет. И хотя персонажи думают, что они продолжают жить дальше, их прошлое еще не оставило их в покое.--Качество видео: BDRip
Формат видео: AVI
Видео кодек: MPEG4, XviD
Аудио кодек: AC-3
Видео: MPEG4, XviD, 704x400 (16:9), 23.976 fps, ~1550 kbps, ~0.230 bit/pixel
Аудио 1: AC-3, 48.0 KHz, 6 ch, 448 Kbps, CBR, 16 бит [Русский]
Аудио 2: AC-3, 48.0 KHz, 6 ch, 448 Kbps, CBR, 16 бит [Английский] -- --

MI

Общее
Полное имя : F:\Ubijstvo.(1.sezon.01-03.serii.iz.13).2011.XviD.BDRip\Ubijstvo.(1.sezon.01.serija.iz.13).2011.XviD.BDRip.avi
Формат : AVI
Формат/Информация : Audio Video Interleave
Размер файла : 800 Мбайт
Продолжительность : 45 м.
Общий поток : 2460 Кбит/сек
Программа кодирования : VirtualDubModRus 1.5.10.2 (build 2542/release)
Библиотека кодирования : VirtualDubMod build 2542/release
Видео
Идентификатор : 0
Формат : MPEG-4 Visual
Профиль формата : Advanced Simple@L5
Параметр BVOP формата : 2
Параметр QPel формата : Нет
Параметр GMC формата : Без точки перехода
Параметр матрицы формата : Default (MPEG)
Идентификатор кодека : XVID
Идентификатор кодека/Подсказка : XviD
Продолжительность : 45 м.
Битрейт : 1550 Кбит/сек
Ширина : 704 пикселя
Высота : 400 пикселей
Соотношение сторон : 16:9
Частота кадров : 23,976 кадра/сек
Цветовое пространство : YUV
Субдискретизация насыщенности : 4:2:0
Битовая глубина : 8 бит
Тип развёртки : Прогрессивная
Метод сжатия : С потерями
Бит/(Пиксели*Кадры) : 0.230
Размер потока : 504 Мбайт (63%)
Библиотека кодирования : XviD 1.2.1 (UTC 2008-12-04)
Аудио #1
Идентификатор : 1
Формат : AC-3
Формат/Информация : Audio Coding 3
Расширение режима : CM (complete main)
Параметр Endianness формата : Big
Идентификатор кодека : 2000
Продолжительность : 45 м.
Вид битрейта : Постоянный
Битрейт : 448 Кбит/сек
Каналы : 6 каналов
Расположение каналов : Front: L C R, Side: L R, LFE
Частота : 48,0 КГц
Битовая глубина : 16 бит
Метод сжатия : С потерями
Размер потока : 146 Мбайт (18%)
Выравнивание : Разделение по промежуткам
Продолжительность промежутка : 42 мс. (1,00 видеокадр)
Время предзагрузки промежутка : 500 мс.
Аудио #2
Идентификатор : 2
Формат : AC-3
Формат/Информация : Audio Coding 3
Расширение режима : CM (complete main)
Параметр Endianness формата : Big
Идентификатор кодека : 2000
Продолжительность : 45 м.
Вид битрейта : Постоянный
Битрейт : 448 Кбит/сек
Каналы : 6 каналов
Расположение каналов : Front: L C R, Side: L R, LFE
Частота : 48,0 КГц
Битовая глубина : 16 бит
Метод сжатия : С потерями
Размер потока : 146 Мбайт (18%)
Выравнивание : Разделение по промежуткам
Продолжительность промежутка : 42 мс. (1,00 видеокадр)
Время предзагрузки промежутка : 500 мс.
Общее
Полное имя : F:\Ubijstvo.(1.sezon.01-03.serii.iz.13).2011.XviD.BDRip\Ubijstvo.(1.sezon.01.serija.iz.13).2011.XviD.BDRip.srt
Размер файла : 94,7 Кбайт

Скриншоты

«СЕЗОН 1» «СЕЗОН 2» «СЕЗОН 3»

_________________
[Торрент-статистика]
[Профиль]  [ЛС] 
Показать сообщения:    
Ответить на тему

Текущее время: Сегодня 00:52

Часовой пояс: GMT + 4



Вы не можете начинать темы
Вы не можете отвечать на сообщения
Вы не можете редактировать свои сообщения
Вы не можете удалять свои сообщения
Вы не можете голосовать в опросах
Вы не можете прикреплять файлы к сообщениям
Вы не можете скачивать файлы