Человек-невидимка/ The Invisible Man (Ли Уоннелл) [2020, Ужасы, фантастика, триллер, детектив,WEB-DLRip - HEVC 1080p] [Mallorn+DUB,Ukr+HDrezka+ENG]+[Subs Rus , Ukr, ENG]

Ответить на тему
 
Автор
Сообщение

Враг Нароода ®

Пол:

Стаж: 2 года 3 месяца

Сообщений: 178

Репутация: 198 [+] [-]

Откуда: Красногорск

Пост 25-Мар-2020 19:05

[Цитировать] 

--Человек-невидимка/ The Invisible Man -- --Год выпуска: 2020
Выпущено: Австралия, США, Канада, Великобритания, Goalpost Pictures, Blumhouse Productions, Dark Universe
Жанр: Ужасы, фантастика, триллер, детектив
Продолжительность: : 02:04:37--Озвучка #1: Профессиональный многоголосый - HDrezka Studio - Русский
Озвучка #2:Любительский многоголосый - Mallorn - Русский
Озвучка #3: Дублированный - украинский
Озвучка #4: Профессиональный многоголосый -Английский - Оригинал
Субтитры: Russian , украинские,English, English SDH
--Релиз Релиз Без Рекламы - Ненормативная лексика --MDB 7.3 --Режиссеры:
Ли Уоннелл--В ролях: Элизабет Мосс, Оливер Джексон-Коэн, Харриет Дайер, Элдис Ходж, Сторм Рейд, Майкл Дорман, Бенедикт Харди, Рени Лим, Брайан Миган, Ник Кичи-- На первый взгляд жизнь Сесилии кажется безупречной: огромный дом, бойфренд — гениальный ученый-миллионер. Но никто не знает, что на самом деле происходит за высокими стенами роскошного особняка. И даже идеально спланированный побег оказывается ловушкой. Невозможно спрятаться от преследователя, которого не видишь.-- --Качество :WEB-DLRip - HEVC 10bit - 1080p
Формат: MKV
Видео кодек: H265
Видео: 4260Кбит/сек,1920х800(2.40.1),в 23.976кадр/сек, HEVC (Main10@L5.1@Main)--Аудио Кодек:AC3
Аудио #1: MVO HDRezka Studio @DD5.1 AC3, 448 Kbps, 48.0 KHz, 6 ch - HDrezka Studio -Русский
Аудио #2: MVO Mallorn @DD5.1 AC3, 448 Kbps, 48.0 KHz, 6 ch - Mallorn -Русский
Аудио #3: DUB Ukr @DD5.1 AC3, 384 Kbps, 48.0 KHz, 6 ch - украинский
Аудио #4: Original@DD5.1 AC3 , 448 Kbps, 48.0 KHz, 6 ch - English - Оригинал--

Доп. информация:

Звуковая дорожка сделана путем наложения чистого голоса озвучивателей на центральный канал оригинальной дорожки. Качество идентично звуковой дорожке.
--

MediaInfo

Общее
Уникальный идентификатор : 202689127631910776160352311123812616996 (0x987C818B3C12C376AEC8B3BF12C50B24)
Полное имя : F:\Nikolai.Baranov & PIRATIYA\Человек-невидимка - The Invisible Man\The.Invisible.Man_2020_HEVC- 10Bit_Н265_DD5.1_N.B_HD_1080_2хRus_Ukr_Eng\The.Invisible.Man_2020_HEVC_DD5.1_N.B_HD_1080_2хRus_Ukr_Eng.mkv
Формат : Matroska
Версия формата : Version 4
Размер файла : 5,20 Гбайт
Продолжительность : 2 ч. 4 м.
Общий поток : 5991 Кбит/сек
Название фильма : The Invisible Man 2020 @ Nikolai.Baranov & PIRATIYA
Дата кодирования : UTC 2020-03-25 10:19:53
Программа кодирования : mkvmerge v44.0.0 ('Domino') 64-bit
Библиотека кодирования : libebml v1.3.10 + libmatroska v1.5.2
Видео
Идентификатор : 1
Формат : HEVC
Формат/Информация : High Efficiency Video Coding
Профиль формата : Main 10@L5.1@Main
Идентификатор кодека : V_MPEGH/ISO/HEVC
Продолжительность : 2 ч. 4 м.
Битрейт : 4260 Кбит/сек
Ширина : 1920 пикселей
Высота : 800 пикселей
Соотношение сторон : 2,40:1
Режим частоты кадров : Постоянный
Частота кадров : 23,976 (24000/1001) кадра/сек
Цветовое пространство : YUV
Субдискретизация насыщенности : 4:2:0
Битовая глубина : 10 бит
Бит/(Пиксели*Кадры) : 0.116
Размер потока : 3,70 Гбайт (71%)
Заголовок : The.Invisible.Man_2020_HEVC_DD5.1_N.B_HD_1080_2хRus_Ukr_Eng
Язык : Russian
Default : Да
Forced : Нет
Цветовой диапазон : Full
Основные цвета : BT.709
Характеристики трансфера : BT.709
Коэффициенты матрицы : BT.709
Аудио #1
Идентификатор : 4
Формат : AC-3
Формат/Информация : Audio Coding 3
Коммерческое название : Dolby Digital
Идентификатор кодека : A_AC3
Продолжительность : 2 ч. 4 м.
Вид битрейта : Постоянный
Битрейт : 448 Кбит/сек
Каналы : 6 каналов
ChannelLayout : L R C LFE Ls Rs
Частота : 48,0 КГц
Частота кадров : 31,250 кадров/сек (1536 SPF)
Метод сжатия : С потерями
Размер потока : 399 Мбайт (7%)
Заголовок : MVO HDRezka Studio @DD5.1 AC3, 448 Kbps, 48.0 KHz, 6 ch
Язык : Russian
ServiceKind/String : Complete Main
Default : Да
Forced : Нет
Аудио #2
Идентификатор : 5
Формат : AC-3
Формат/Информация : Audio Coding 3
Коммерческое название : Dolby Digital
Идентификатор кодека : A_AC3
Продолжительность : 2 ч. 4 м.
Вид битрейта : Постоянный
Битрейт : 448 Кбит/сек
Каналы : 6 каналов
ChannelLayout : L R C LFE Ls Rs
Частота : 48,0 КГц
Частота кадров : 31,250 кадров/сек (1536 SPF)
Метод сжатия : С потерями
Размер потока : 399 Мбайт (7%)
Заголовок : MVO Mallorn @DD5.1 AC3, 448 Kbps, 48.0 KHz, 6 ch
Язык : Russian
ServiceKind/String : Complete Main
Default : Нет
Forced : Нет
Аудио #3
Идентификатор : 6
Формат : AC-3
Формат/Информация : Audio Coding 3
Коммерческое название : Dolby Digital
Идентификатор кодека : A_AC3
Продолжительность : 2 ч. 4 м.
Вид битрейта : Постоянный
Битрейт : 384 Кбит/сек
Каналы : 6 каналов
ChannelLayout : L R C LFE Ls Rs
Частота : 48,0 КГц
Частота кадров : 31,250 кадров/сек (1536 SPF)
Метод сжатия : С потерями
Размер потока : 342 Мбайт (6%)
Заголовок : DUB Ukr @DD5.1 AC3, 384 Kbps, 48.0 KHz, 6 ch
Язык : Ukrainian
ServiceKind/String : Complete Main
Default : Нет
Forced : Нет
Аудио #4
Идентификатор : 7
Формат : AC-3
Формат/Информация : Audio Coding 3
Коммерческое название : Dolby Digital
Идентификатор кодека : A_AC3
Продолжительность : 2 ч. 4 м.
Вид битрейта : Постоянный
Битрейт : 448 Кбит/сек
Каналы : 6 каналов
ChannelLayout : L R C LFE Ls Rs
Частота : 48,0 КГц
Частота кадров : 31,250 кадров/сек (1536 SPF)
Метод сжатия : С потерями
Размер потока : 399 Мбайт (7%)
Заголовок : Original@DD5.1 AC3 , 448 Kbps, 48.0 KHz, 6 ch
Язык : English
ServiceKind/String : Complete Main
Default : Нет
Forced : Нет
Текст #1
Идентификатор : 2
Формат : UTF-8
Идентификатор кодека : S_TEXT/UTF8
Идентификатор кодека/Информация : UTF-8 Plain Text
Продолжительность : 1 ч. 45 м.
Битрейт : 0 бит/сек
ElementCount : 12
Размер потока : 587 байт (0%)
Заголовок : Russian-Forced
Язык : Russian
Default : Да
Forced : Нет
Текст #2
Идентификатор : 3
Формат : UTF-8
Идентификатор кодека : S_TEXT/UTF8
Идентификатор кодека/Информация : UTF-8 Plain Text
Продолжительность : 1 ч. 53 м.
Битрейт : 48 бит/сек
ElementCount : 958
Размер потока : 40,6 Кбайт (0%)
Заголовок : Russian
Язык : Russian
Default : Нет
Forced : Нет
Текст #3
Идентификатор : 8
Формат : UTF-8
Идентификатор кодека : S_TEXT/UTF8
Идентификатор кодека/Информация : UTF-8 Plain Text
Продолжительность : 1 ч. 53 м.
Битрейт : 48 бит/сек
ElementCount : 958
Размер потока : 40,2 Кбайт (0%)
Заголовок : Ukr
Язык : Ukrainian
Default : Нет
Forced : Нет
Текст #4
Идентификатор : 9
Формат : UTF-8
Идентификатор кодека : S_TEXT/UTF8
Идентификатор кодека/Информация : UTF-8 Plain Text
Продолжительность : 2 ч. 4 м.
Битрейт : 43 бит/сек
ElementCount : 1416
Размер потока : 39,3 Кбайт (0%)
Заголовок : Original - SDH
Язык : English
Default : Нет
Forced : Нет
Текст #5
Идентификатор : 10
Формат : UTF-8
Идентификатор кодека : S_TEXT/UTF8
Идентификатор кодека/Информация : UTF-8 Plain Text
Продолжительность : 1 ч. 49 м.
Битрейт : 33 бит/сек
ElementCount : 965
Размер потока : 26,8 Кбайт (0%)
Заголовок : Original
Язык : English
Default : Нет
Forced : Нет
Меню
00:00:00.000 : ru:Глава 01 / ru:Глава 01 / ru:Глава 01 / ru:Глава 01 / ru:Глава 01 / ru:Глава 01 / ru:Глава 01 / ru:Глава 01 / ru:Глава 01 / ru:Глава 01
--

Скриншоты

-- ---- -- --Релиз от: Nikolai.Baranov & PIRATIYA . Поблагодарить:
ЯД: 410017546713876
-- -- -- --Время раздачи : 24/7--

_________________

Легко быть оптимистом, когда судьба не валит с ног тяжелыми ударами, а лишь иногда легонько шлепает по заднице.
[Торрент-статистика]
[Профиль]  [ЛС] 

Волк

Пол:

Стаж: 8 лет 5 месяцев

Сообщений: 777

Репутация: 310 [+] [-]

Откуда: Армения

Пост 25-Мар-2020 20:40 (спустя 1 час 35 минут)

[Цитировать] 

Это не UHD видео

_________________
Мои раздачи
[Торрент-статистика]
[Профиль]  [ЛС] 

Пост 25-Мар-2020 20:51 (спустя 10 минут)

Топик был перенесен из форума UHD Video в форум Зарубежное кино
Волк
 
Показать сообщения:    
Ответить на тему

Текущее время: Сегодня 07:42

Часовой пояс: GMT + 4



Вы не можете начинать темы
Вы не можете отвечать на сообщения
Вы не можете редактировать свои сообщения
Вы не можете удалять свои сообщения
Вы не можете голосовать в опросах
Вы не можете прикреплять файлы к сообщениям
Вы не можете скачивать файлы