Видоизмененный углерод / Altered Carbon [2018] (Сезон 1 , Серия 1-5 из 10) (Ута Бризвитц) [Фантастика, триллер, драма , WEB-DLRip][1080p][HEVC ][LostFilm+NewStudiо+AlexFilm+BaibaKo+GearsМedia+Omskbird+Eng]+[Subs ENG+Rus]

Ответить на тему
 
Автор
Сообщение

Враг Нароода ®

Пол:

Стаж: 7 месяцев 12 дней

Сообщений: 34

Репутация: 14 [+] [-]

Откуда: Красногорск

Пост 08-Фев-2018 13:10

[Цитировать] 

-- --Видоизмененный углерод / Altered Carbon Сезон 1 , Серия 1-5 из 10 -- --Год выпуска:2018
Выпущено: США , Netflix, Mythology Entertainment, Skydance Television
Жанр:Фантастика, триллер, драма
Продолжительность:00:58:00
Сезон:1
Серия:1-5
Количество серий в сезоне: 10--Озвучка1: Профессиональный многоголосый - LostFilm -Русский
Озвучка2: Профессиональный многоголосый - NewStudiо -Русский
Озвучка3: Профессиональный многоголосый - AlexFilm -Русский
Озвучка 4: Профессиональный многоголосый -BaibaKo-Русский
Озвучка 5: Профессиональный многоголосый -GearsМedia-Русский
Озвучка 6: Профессиональный многоголосый -Omskbird-Русский
Озвучка 7: Профессиональный многоголосый -ProfixMedia-Русский
Озвучка 8:Профессиональный двухголосый -Кубик в Кубе-Русский
Озвучка 9: Профессиональный многоголосый - Английский - Оригинал
Субтитры: : Russian, English, English SDH --Официальный сайт
MDB [img]https://rating.kinopoisk.ru/669089.gif[/img]--Режиссер:
Ута Бризвитц, Питер Хор, Ник Харран--Актеры:
Юэль Киннаман, Джеймс Пьюрфой, Марта Игареда, Крис Коннер, Антонио Марциале, Кристин Леман, Хиро Канагава, Валид Зуэйтер, Марлин Форте, Алика Аутран, Хэйли Лоу, Тич Грант, Заф Пару, Тамара Тейлор, Адам Буш, Дичен Лакмэн, Лиза Чандлер, Ато Эссонда, Байрон Манн, Треу Трэн, Рене Голдсберри-- ИсторияЗемля, XXVII век. Мир, в котором появилась возможность «сгружать» человеческое сознание и личность из одного тела в другое. Идеальный мир и для преступников, и для полицейских, и для армии, но вряд ли идеальный для бывшего военного спецназовца Такеси Ковача, которого миллиардер Бэнкрофт нанял для расследования гибели одного из своих тел. Внешне — явное самоубийство. В действительности — явное убийство. Вот только воспоминания об убийце уничтожены вместе с телом-клоном.-- --Качество :WEB-DLRip 1080p
Формат: MKV
Видео кодек: H265 HEVC
Видео: 8409Kбит/сек,1920х960(2.000),в 23.976кадр/сек, HEVC(Main@L4(Main)--Аудио Кодек:AC3
Аудио #1:AC3 384 Kbps, 48.0 KHz, 6 ch- LostFilm -Русский
Аудио #2:AC3 , 384 Kbps, 48.0 KHz, 6 ch- NewStudiо -Русский
Аудио #3:AC3 , 384 Kbps, 48.0 KHz, 6 ch- AlexFilm -Русский
Аудио #4:AC3 , 384 Kbps, 48.0 KHz, 6 ch- BaibaKo -Русский
Аудио #5:AC3 , 384 Kbps, 48.0 KHz, 6 ch- GearsМedia -Русский
Аудио #6:AC3 , 384 Kbps, 48.0 KHz, 6 ch- Omskbird -Русский
Аудио #7:AC3 , 384 Kbps, 48.0 KHz, 6 ch- ProfixMedia -Русский
Аудио #8:AC3 , 384 Kbps, 48.0 KHz, 6 ch-Кубик в Кубе -Русский
Аудио #9: AC3, 640 Kbps, 48.0 KHz,6 ch - - English - Оригинал--

Доп. информация:

Звуковая дорожка сделана путем наложения чистого голоса озвучивателей на центральный канал оригинальной дорожки. Качество идентично звуковой дорожке.
--

Список эпизодов сезона


1 сезон 1 серия - Из прошлого -Out of the Past
1 сезон 2 серия - Падший ангел - Fallen Angel
1 сезон 3 серия - В укромном месте - In a Lonely Place
1 сезон 4 серия - Сила зла - Force of Evil
1 сезон 5 серия - Не тот человек - The Wrong Man
--

MediaInfo сезона

Общее
Уникальный идентификатор : 71392033529206234646884469186902124424 (0x35B59B03206F1A75910D39452EAC6788)
Полное имя : C:\ХОББИ\Nikolai.Baranov & PIRATIYA\ALTERED_CARBON_S01_Rus_Eng[LostFilm_NewStudio_AlexFilm_BaibaKo_GearsМedia_Omskbird]_HEVC_N.B_HD_1080p\Altered_Carbon_S01E01_HEVC_N.B_7xRus_Eng_HD_1080p.mkv
Формат : Matroska
Версия формата : Version 4 / Version 2
Размер файла : 4,97 Гбайт
Продолжительность : 58 м. 53 с.
Общий поток : 12,1 Мбит/сек
Название фильма : Altered Carbon S01E01 @ Nikolai.Baranov & PIRATIYA
Дата кодирования : UTC 2018-02-15 08:22:22
Программа кодирования : mkvmerge v20.0.0 ('I Am The Sun') 64-bit
Библиотека кодирования : libebml v1.3.5 + libmatroska v1.4.8
Видео
Идентификатор : 1
Формат : HEVC
Формат/Информация : High Efficiency Video Coding
Профиль формата : Main@L4@Main
Идентификатор кодека : V_MPEGH/ISO/HEVC
Продолжительность : 58 м. 53 с.
Битрейт : 8409 Кбит/сек
Ширина : 1920 пикселей
Высота : 960 пикселей
Соотношение сторон : 2,000
Режим частоты кадров : Постоянный
Частота кадров : 23,976 (24000/1001) кадра/сек
Цветовое пространство : YUV
Субдискретизация насыщенности : 4:2:0
Битовая глубина : 8 бит
Бит/(Пиксели*Кадры) : 0.190
Размер потока : 3,46 Гбайт (70%)
Заголовок : Altered_Carbon_S01E01_HEVC_N.B_7xRus_Eng_HD_1080p
Язык : Russian
Default : Да
Forced : Нет
Цветовой диапазон : Full
Аудио #1
Идентификатор : 6
Формат : AC-3
Формат/Информация : Audio Coding 3
Идентификатор кодека : A_AC3
Продолжительность : 58 м. 2 с.
Вид битрейта : Постоянный
Битрейт : 384 Кбит/сек
Каналы : 6 каналов
Расположение каналов : Front: L C R, Side: L R, LFE
Частота : 48,0 КГц
Частота кадров : 31,250 кадров/сек (1536 SPF)
Битовая глубина : 16 бит
Метод сжатия : С потерями
Размер потока : 159 Мбайт (3%)
Заголовок : MVO ProfixMedia @DD5.1 AC3, 384 Kbps, 48.0 KHz, 6 ch
Язык : Russian
ServiceKind/String : Complete Main
Default : Нет
Forced : Нет
Аудио #2
Идентификатор : 7
Формат : AC-3
Формат/Информация : Audio Coding 3
Идентификатор кодека : A_AC3
Продолжительность : 58 м. 2 с.
Вид битрейта : Постоянный
Битрейт : 384 Кбит/сек
Каналы : 6 каналов
Расположение каналов : Front: L C R, Side: L R, LFE
Частота : 48,0 КГц
Частота кадров : 31,250 кадров/сек (1536 SPF)
Битовая глубина : 16 бит
Метод сжатия : С потерями
Размер потока : 159 Мбайт (3%)
Заголовок : MVO LostFilm @DD5.1 AC3, 384 Kbps, 48.0 KHz, 6 ch
Язык : Russian
ServiceKind/String : Complete Main
Default : Да
Forced : Нет
Аудио #3
Идентификатор : 8
Формат : AC-3
Формат/Информация : Audio Coding 3
Идентификатор кодека : A_AC3
Продолжительность : 58 м. 2 с.
Вид битрейта : Постоянный
Битрейт : 384 Кбит/сек
Каналы : 6 каналов
Расположение каналов : Front: L C R, Side: L R, LFE
Частота : 48,0 КГц
Частота кадров : 31,250 кадров/сек (1536 SPF)
Битовая глубина : 16 бит
Метод сжатия : С потерями
Размер потока : 159 Мбайт (3%)
Заголовок : MVO NewStudio @DD5.1 AC3, 384 Kbps, 48.0 KHz, 6 ch
Язык : Russian
ServiceKind/String : Complete Main
Default : Нет
Forced : Нет
Аудио #4
Идентификатор : 9
Формат : AC-3
Формат/Информация : Audio Coding 3
Идентификатор кодека : A_AC3
Продолжительность : 58 м. 2 с.
Вид битрейта : Постоянный
Битрейт : 384 Кбит/сек
Каналы : 6 каналов
Расположение каналов : Front: L C R, Side: L R, LFE
Частота : 48,0 КГц
Частота кадров : 31,250 кадров/сек (1536 SPF)
Битовая глубина : 16 бит
Метод сжатия : С потерями
Размер потока : 159 Мбайт (3%)
Заголовок : MVO AlexFilm @DD5.1 AC3, 384 Kbps, 48.0 KHz, 6 ch
Язык : Russian
ServiceKind/String : Complete Main
Default : Нет
Forced : Нет
Аудио #5
Идентификатор : 10
Формат : AC-3
Формат/Информация : Audio Coding 3
Идентификатор кодека : A_AC3
Продолжительность : 58 м. 2 с.
Вид битрейта : Постоянный
Битрейт : 384 Кбит/сек
Каналы : 6 каналов
Расположение каналов : Front: L C R, Side: L R, LFE
Частота : 48,0 КГц
Частота кадров : 31,250 кадров/сек (1536 SPF)
Битовая глубина : 16 бит
Метод сжатия : С потерями
Размер потока : 159 Мбайт (3%)
Заголовок : MVO BaibaKo @DD5.1 AC3, 384 Kbps, 48.0 KHz, 6 ch
Язык : Russian
ServiceKind/String : Complete Main
Default : Нет
Forced : Нет
Аудио #6
Идентификатор : 11
Формат : AC-3
Формат/Информация : Audio Coding 3
Идентификатор кодека : A_AC3
Продолжительность : 58 м. 2 с.
Вид битрейта : Постоянный
Битрейт : 384 Кбит/сек
Каналы : 6 каналов
Расположение каналов : Front: L C R, Side: L R, LFE
Частота : 48,0 КГц
Частота кадров : 31,250 кадров/сек (1536 SPF)
Битовая глубина : 16 бит
Метод сжатия : С потерями
Размер потока : 159 Мбайт (3%)
Заголовок : MVO GearsМedia @DD5.1 AC3, 384 Kbps, 48.0 KHz, 6 ch
Язык : Russian
ServiceKind/String : Complete Main
Default : Нет
Forced : Нет
Аудио #7
Идентификатор : 12
Формат : AC-3
Формат/Информация : Audio Coding 3
Идентификатор кодека : A_AC3
Продолжительность : 58 м. 2 с.
Вид битрейта : Постоянный
Битрейт : 384 Кбит/сек
Каналы : 6 каналов
Расположение каналов : Front: L C R, Side: L R, LFE
Частота : 48,0 КГц
Частота кадров : 31,250 кадров/сек (1536 SPF)
Битовая глубина : 16 бит
Метод сжатия : С потерями
Размер потока : 159 Мбайт (3%)
Заголовок : MVO Omskbird @DD5.1 AC3, 384 Kbps, 48.0 KHz, 6 ch
Язык : Russian
ServiceKind/String : Complete Main
Default : Нет
Forced : Нет
Аудио #8
Идентификатор : 13
Формат : AC-3
Формат/Информация : Audio Coding 3
Идентификатор кодека : A_AC3
Продолжительность : 58 м. 2 с.
Вид битрейта : Постоянный
Битрейт : 640 Кбит/сек
Каналы : 6 каналов
Расположение каналов : Front: L C R, Side: L R, LFE
Частота : 48,0 КГц
Частота кадров : 31,250 кадров/сек (1536 SPF)
Битовая глубина : 16 бит
Метод сжатия : С потерями
Размер потока : 266 Мбайт (5%)
Заголовок : Original @DD5.1 AC3, 640 Kbps, 48.0 KHz, 6 ch
Язык : English
ServiceKind/String : Complete Main
Default : Нет
Forced : Нет
Аудио #9
Идентификатор : 14
Формат : AC-3
Формат/Информация : Audio Coding 3
Идентификатор кодека : A_AC3
Продолжительность : 58 м. 2 с.
Вид битрейта : Постоянный
Битрейт : 384 Кбит/сек
Каналы : 6 каналов
Расположение каналов : Front: L C R, Side: L R, LFE
Частота : 48,0 КГц
Частота кадров : 31,250 кадров/сек (1536 SPF)
Битовая глубина : 16 бит
Метод сжатия : С потерями
Размер потока : 159 Мбайт (3%)
Заголовок : MVO Kubik V Kube @DD5.1 AC3, 384 Kbps, 48.0 KHz, 6 ch
Язык : Russian
ServiceKind/String : Complete Main
Default : Нет
Forced : Нет
Текст #1
Идентификатор : 2
Формат : UTF-8
Идентификатор кодека : S_TEXT/UTF8
Идентификатор кодека/Информация : UTF-8 Plain Text
Продолжительность : 53 м. 37 с.
Битрейт : 111 бит/сек
ElementCount : 706
Размер потока : 43,7 Кбайт (0%)
Заголовок : Rus
Язык : Russian
Default : Да
Forced : Нет
Текст #2
Идентификатор : 3
Формат : UTF-8
Идентификатор кодека : S_TEXT/UTF8
Идентификатор кодека/Информация : UTF-8 Plain Text
Продолжительность : 25 м. 48 с.
Битрейт : 1 бит/сек
ElementCount : 9
Размер потока : 248 байт (0%)
Заголовок : Forced
Язык : English
Default : Нет
Forced : Нет
Текст #3
Идентификатор : 4
Формат : UTF-8
Идентификатор кодека : S_TEXT/UTF8
Идентификатор кодека/Информация : UTF-8 Plain Text
Продолжительность : 54 м. 57 с.
Битрейт : 66 бит/сек
ElementCount : 723
Размер потока : 26,7 Кбайт (0%)
Заголовок : Original
Язык : English
Default : Нет
Forced : Нет
Текст #4
Идентификатор : 5
Формат : UTF-8
Идентификатор кодека : S_TEXT/UTF8
Идентификатор кодека/Информация : UTF-8 Plain Text
Продолжительность : 57 м. 24 с.
Битрейт : 72 бит/сек
ElementCount : 828
Размер потока : 30,6 Кбайт (0%)
Заголовок : Original - SDH
Язык : English
Default : Нет
Forced : Нет
Меню
00:00:00.000 : en:Глава 01 / en:Глава 01 / en:Глава 01 / en:Глава 01 / en:Глава 01 / en:Глава 01 / en:Глава 01 / en:Глава 01 / en:Глава 01 / en:Глава 01 / en:Глава 01 / en:Глава 01 / en:Глава 01 / en:Глава 01
--

Скриншоты

-- --Внимание! Раздача пополняется по мере выхода новых серий!--

Внимание! Раздача ведётся путём добавления новых серий!

Раздача ведётся путём добавления новых серий; при каждом добавлении создётся новый торрент.
Чтобы начать докачку новой серии, пользователям необходимо сделать следующее:
1. остановить скачивание,
2. удалить старый торрент у себя из клиента (старые серии удалять не надо),
3. скачать новый торрент и запустить его у себя в клиенте вместо старого, при этом указать клиенту путь в старую папку, куда и должно происходить скачивание новых серий.
Ваш клиент при этом должен произвести хеширование (проверку) старой папки (если не производит сам - помогите ему сделать это), и будет докачивать только те серии которых у вас ещё нет. Старые серии при этом не удаляются, а продолжают раздаваться!
Eсли вы уже удалили старые серии, то предотвратить повторную закачку старых серий можно, отжав галочку в соответсвующих местах при запуске нового торрента. По возможности, желательно не удалять старые серии как можно дольше, чтобы релизёр не столько продолжал раздавать старые серии, а смог сконцентрироваться на новых.
Совет для тех, кто не хочет ждать перехеширования:
Создайте ещё одну папку рядом с папкой сериала (рядом, а не в ней!!!). Каждую новую серию после удачной загрузки копируйте в новую папку так чтобы ваша основная папка всегда была пуста. Когда ваш новый торрент предложит вам закачать все файлы, выберете только последнюю. Для сидирования же укажите адрес новой папки.
Как закачать отдельный файл из торрента или докачать ранее пропущенные файлы торрента!

Как закачать отдельный файл

1. Открыть торрент
2. Снять галки с тех файлов торрента, которые мы не хотим закачивать. Оставляем только на нужных нам файлах (файле).
3. Нажать О.К.
В клиенте utorrent
Инструкция
1) Открыть торрент

2) Снять галки с тех файлов торрента, которые мы не хотим закачивать:
* либо вручную, снимая с каждого файла галку( скрин №1)
* либо, нажав кнопку "Снять метки (Select None)", сняв сразу со всех файлов(скрин №2)
№1

№2

Оставляем только на нужных нам файлах (файле).

3)Нажать О.К
-- -- --Внимание!!! 18.02. 2018. РАЗДАЧА ОБНОВЛЕНА. ДОБАВЛЕНА 5 СЕРИЯ. ОБНОВИТЕ ТОРЕНТ ФАЙЛ. ПРИЯТНОГО ПРОСМОТРА . --Релиз от: Nikolai.Baranov & PIRATIYA -- -- -- --

_________________

Легко быть оптимистом, когда судьба не валит с ног тяжелыми ударами, а лишь иногда легонько шлепает по заднице.


Последний раз редактировалось: Враг Нароода (2018-02-18 19:06), всего редактировалось 4 раз(а)
[Торрент-статистика]
[Профиль]  [ЛС] 

3rikovi4

Пол:

Стаж: 6 лет 8 месяцев

Сообщений: 1314

Репутация: 1052 [+] [-]

Откуда: Бывший СССР

Пост 09-Фев-2018 21:21 (спустя 1 день 8 часов)

[Цитировать] 

А в какой озвучке русской лучше смотреть? Понимаю, что это дело вкуса, но всё же... bk

_________________
Не стоит прогибаться под изменчивый мир. Пусть лучше он прогнётся под нас!
[Торрент-статистика]
[Профиль]  [ЛС] 

brodyga

Пол:

Стаж: 6 лет 9 месяцев

Сообщений: 48

Репутация: 28 [+] [-]

Пост 14-Фев-2018 11:20 (спустя 4 дня)

[Цитировать] 

54491А в какой озвучке русской лучше смотреть? Понимаю, что это дело вкуса, но всё же... bk
LostFilm всегда вне конкуренции был. Это мое мнение.
[Торрент-статистика]
[Профиль]  [ЛС] 

hfqgfd

Стаж: 11 месяцев 23 дня

Сообщений: 1

Репутация: 0 [+] [-]

Пост 14-Фев-2018 17:36 (спустя 6 часов)

[Цитировать] 

Я уже весь посмотрел.
[Торрент-статистика]
[Профиль]  [ЛС] 
Показать сообщения:    
Ответить на тему

Текущее время: Сегодня 07:00

Часовой пояс: GMT + 4



Вы не можете начинать темы
Вы не можете отвечать на сообщения
Вы не можете редактировать свои сообщения
Вы не можете удалять свои сообщения
Вы не можете голосовать в опросах
Вы не можете прикреплять файлы к сообщениям
Вы не можете скачивать файлы