Обитель зла. Пенталогия / Resident Evil. Pentalogy (Пол У. С. Андерсон) [2002–2012 г., Ужасы, BDRip-AVC]

Ответить на тему
 
Автор
Сообщение

luis5 ®

Пол:

Стаж: 3 года 11 месяцев

Сообщений: 125

Репутация: 51 [+] [-]

Откуда: Кузбасс

Пост 01-Июл-2014 11:28

[Цитировать] 

--Обитель зла. Пенталогия / Resident Evil. Pentalogy 2002–2012-- --

Обитель зла

Обитель зла / Resident Evil
«From the Director of Mortal Combat and Event Horizon.»
- Год выпуска: 2002
Страна: Германия, Франция, Великобритания
Жанр: Ужасы
Продолжительность: 01:40:30
Перевод: Профессиональный (Дубляж)
Субтитры: Русские, английские
Режиссер: Пол У. С. Андерсон
В ролях: Милла Йовович, Мишель Родригес, Эрик Мэбиас, Джеймс Пьюрфой, Мартин Крюз, Колин Сэлмон, Райан МакКласки, Оскар Пирс, Индра Ове, Анна Болт-Описание: В гигантской подземной лаборатории на волю вырывается опаснейший вирус, мгновенно превращая своих жертв в прожорливых зомби. Достаточно одного их укуса или царапины страшных когтей, чтобы человек стал обезумевшим пожирателем живой плоти.
Военные посылают в секретный комплекс, кишащий ужасными мутировавшими животными и голодными монстрами, группу спецназа, к которой присоединяются очаровательная Элис и отважный полицейский Мэтт. У них есть только три часа, чтобы уничтожить вирус до того, как он распространится по всей Земле…- -Качество: BDRip-AVC
Контейнер: MKV
Видео кодек: H.264
Аудио кодек: AC3
Видео: H.264, 1919 Kbps, 1024x552 pix., 23.976 fps, High 10@L5.1
Аудио#1: AC-3, 48.0 KHz, 384 Kbps, 6 каналов, 16 bits (RUS)
Аудио#2: AC-3, 48.0 KHz, 384 Kbps, 6 каналов, 16 bits (ENG)

MediaInfo

General
Unique ID : 183695934308229632431844508231557326270 (0x8A328CD061861E92A8615FCB313A25BE)
Название : D:BDRip-AVCОбитель Зла (1-5) BDRip-AVC1.Обитель.зла.mkv
Формат : Matroska
Формат version : Version 4 / Version 2
Размер файла : 1.88 GiB
Длительность : 1h 40mn
Общий Битрейт mode : Variable
Общий Битрейт : 2 682 Kbps
Movie name : Resident Evil (2002) BDRip
Encoded date : UTC 2010-02-22 21:41:31
Создано приложением : mkvmerge v5.9.0 ('On The Loose') built on Dec 9 2012 15:37:01
Writing library : libebml v1.3.0 + libmatroska v1.4.0
Video
ID : 1
Формат : AVC
Формат/Info : Advanced Video Кодек
Формат profile : High 10@L5.1
Формат настройки, CABAC : Yes
Формат настройки, ReFrames : 16 frames
Кодек ID : V_MPEG4/ISO/AVC
Длительность : 1h 40mn
Битрейт mode : Variable
Битрейт : 1 919 Kbps
Maximum Битрейт : 30.0 Mbps
Width : 1 024 пикселей
Высота : 552 пикселей
Соотношение кадра : 1.85:1
Частота кадров mode : Constant
Частота кадров : 23.976 fps
Цветопередача : YUV
Chroma subsampling : 4:2:0
Разрядность : 10 bits
Тип сканирования : Progressive
Bits/(Pixel*Frame) : 0.142
Размер потока : 1.31 GiB (69%)
Writing library : x264 core 129 r2230+696+35 805d074 tMod [10-bit@all X86_64]
Encoding настройки : cabac=1 / ref=16 / deblock=1:-4:-4 / analyse=0x3:0x133 / me=tesa / subme=11 / psy=1 / fade_compensate=0.00 / psy_rd=1.00:0.15 / mixed_ref=1 / me_range=32 / chroma_me=1 / trellis=2 / 8x8dct=1 / cqm=0 / deadzone=21,11 / fast_pskip=1 / chroma_qp_offset=-3 / threads=6 / lookahead_threads=1 / sliced_threads=0 / nr=0 / decimate=1 / interlaced=0 / bluray_compat=0 / constrained_intra=0 / fgo=0 / bframes=12 / b_pyramid=2 / b_adapt=2 / b_bias=0 / direct=2 / weightb=1 / open_gop=0 / weightp=1 / keyint=240 / keyint_min=23 / scenecut=40 / intra_refresh=0 / rc_lookahead=50 / rc=2pass / mbtree=1 / bitrate=1919 / ratetol=2.0 / qcomp=0.60 / qpmin=0 / qpmax=51 / qpstep=4 / cplxblur=20.0 / qblur=0.5 / vbv_maxrate=30000 / vbv_bufsize=50000 / nal_hrd=vbr / ip_ratio=1.40 / aq=1:1.00
Язык : English
Default : Yes
Forced : No
Color primaries : BT.709
Transfer characteristics : BT.709
Audio #1
ID : 2
Формат : AC-3
Формат/Info : Audio Coding 3
Расширение режима : CM (complete main)
Формат настройки, Endianness : Big
Кодек ID : A_AC3
Длительность : 1h 40mn
Битрейт mode : Constant
Битрейт : 384 Kbps
Каналы(s) : 6 каналов
Каналы positions : Front: L C R, Side: L R, LFE
Частота : 48.0 KHz
Разрядность : 16 bits
Режим сжатия : Lossy
Размер потока : 276 MiB (14%)
Язык : Russian
Default : Yes
Forced : No
Audio #2
ID : 3
Формат : AC-3
Формат/Info : Audio Coding 3
Расширение режима : CM (complete main)
Формат настройки, Endianness : Big
Кодек ID : A_AC3
Длительность : 1h 40mn
Битрейт mode : Constant
Битрейт : 384 Kbps
Каналы(s) : 6 каналов
Каналы positions : Front: L C R, Side: L R, LFE
Частота : 48.0 KHz
Разрядность : 16 bits
Режим сжатия : Lossy
Размер потока : 276 MiB (14%)
Язык : English
Default : No
Forced : No
Text #1
ID : 4
Формат : UTF-8
Кодек ID : S_TEXT/UTF8
Кодек ID/Info : UTF-8 Plain Text
Язык : Russian
Default : No
Forced : No
Text #2
ID : 5
Формат : UTF-8
Кодек ID : S_TEXT/UTF8
Кодек ID/Info : UTF-8 Plain Text
Язык : Russian
Default : No
Forced : No
Text #3
ID : 6
Формат : UTF-8
Кодек ID : S_TEXT/UTF8
Кодек ID/Info : UTF-8 Plain Text
Язык : English
Default : No
Forced : No

Скриншоты

Обитель зла: Апокалипсис

Обитель зла: Апокалипсис / Resident Evil:
Apocalypse

«She went through the catacombs, a zombie-infested. Now on her way to a city...»
Год выхода: 2004
Страна: Германия, Франция, Великобритания
Жанр: Ужасы
Длительность: 01:33:48
Перевод: Профессиональный (Дубляж)
Субтитры: Русские, английские
Режиссер: Пол У. С. Андерсон
В ролях: Милла Йовович, Сиенна Гиллори, Одед Фер, Томас Кречманн, Софи Вавасо, Разаак Адоти, Джаред Харрис, Майк Еппс, Сандрин Холт, Мэттью Дж. Тейлор-Описание: Действие картины разворачивается на улицах печально известного Ракун-сити, города, контролируемого могущественной корпорацией «Амбрелла».
После химический катастрофы все жители стали медленно превращаться в зомби, а те немногочисленные граждане, чей разум ещё не был до конца изъеден ужасным вирусом, доживали свои последние дни в атмосфере страха и желания скорейшей смерти…- -Качество: BDRip-AVC
Контейнер: MKV
Видео кодек: H.264
Аудио кодек: AC3
Видео: H.264, 1604 Kbps, 1024x424 pix., 23.976 fps, High 10@L5.1
Аудио#1: AC-3, 48.0 KHz, 384 Kbps, 6 каналов, 16 bits (RUS)
Аудио#2: AC-3, 48.0 KHz, 384 Kbps, 6 каналов, 16 bits (ENG)

MediaInfo

General
Unique ID : 189136270673199131859373843978372677034 (0x8E4A521B181C1A15B22B483743BE7DAA)
Название : D:BDRip-AVCОбитель Зла (1-5) BDRip-AVC2.Обитель.зла.mkv
Формат : Matroska
Формат version : Version 4 / Version 2
Размер файла : 1.55 GiB
Длительность : 1h 33mn
Общий Битрейт mode : Variable
Общий Битрейт : 2 360 Kbps
Movie name : Resident Evil: Apocalypse (2004) BDRip
Encoded date : UTC 2010-02-22 21:41:31
Создано приложением : mkvmerge v5.9.0 ('On The Loose') built on Dec 9 2012 15:37:01
Writing library : libebml v1.3.0 + libmatroska v1.4.0
Video
ID : 1
Формат : AVC
Формат/Info : Advanced Video Кодек
Формат profile : High 10@L5.1
Формат настройки, CABAC : Yes
Формат настройки, ReFrames : 15 frames
Кодек ID : V_MPEG4/ISO/AVC
Длительность : 1h 33mn
Битрейт mode : Variable
Битрейт : 1 604 Kbps
Maximum Битрейт : 30.0 Mbps
Width : 1 024 пикселей
Высота : 424 пикселей
Соотношение кадра : 2.40:1
Частота кадров mode : Constant
Частота кадров : 23.976 fps
Цветопередача : YUV
Chroma subsampling : 4:2:0
Разрядность : 10 bits
Тип сканирования : Progressive
Bits/(Pixel*Frame) : 0.154
Размер потока : 1.01 GiB (65%)
Writing library : x264 core 129 r2230+696+35 805d074 tMod [10-bit@all X86_64]
Encoding настройки : cabac=1 / ref=15 / deblock=1:-3:-3 / analyse=0x3:0x133 / me=tesa / subme=11 / psy=1 / fade_compensate=0.00 / psy_rd=1.00:0.15 / mixed_ref=1 / me_range=32 / chroma_me=1 / trellis=2 / 8x8dct=1 / cqm=0 / deadzone=21,11 / fast_pskip=1 / chroma_qp_offset=-3 / threads=2 / lookahead_threads=1 / sliced_threads=0 / nr=0 / decimate=1 / interlaced=0 / bluray_compat=0 / constrained_intra=0 / fgo=0 / bframes=11 / b_pyramid=2 / b_adapt=2 / b_bias=0 / direct=2 / weightb=1 / open_gop=0 / weightp=1 / keyint=240 / keyint_min=23 / scenecut=40 / intra_refresh=0 / rc_lookahead=50 / rc=2pass / mbtree=1 / bitrate=1604 / ratetol=2.0 / qcomp=0.60 / qpmin=0 / qpmax=51 / qpstep=4 / cplxblur=20.0 / qblur=0.5 / vbv_maxrate=30000 / vbv_bufsize=50000 / nal_hrd=vbr / ip_ratio=1.40 / aq=1:1.00
Язык : English
Default : Yes
Forced : No
Color primaries : BT.709
Transfer characteristics : BT.709
Matrix coefficients : BT.709
Audio #1
ID : 2
Формат : AC-3
Формат/Info : Audio Coding 3
Расширение режима : CM (complete main)
Формат настройки, Endianness : Big
Кодек ID : A_AC3
Длительность : 1h 33mn
Битрейт mode : Constant
Битрейт : 384 Kbps
Каналы(s) : 6 каналов
Каналы positions : Front: L C R, Side: L R, LFE
Частота : 48.0 KHz
Разрядность : 16 bits
Режим сжатия : Lossy
Размер потока : 258 MiB (16%)
Язык : Russian
Default : Yes
Forced : No
Audio #2
ID : 3
Формат : AC-3
Формат/Info : Audio Coding 3
Расширение режима : CM (complete main)
Формат настройки, Endianness : Big
Кодек ID : A_AC3
Длительность : 1h 33mn
Битрейт mode : Constant
Битрейт : 384 Kbps
Каналы(s) : 6 каналов
Каналы positions : Front: L C R, Side: L R, LFE
Частота : 48.0 KHz
Разрядность : 16 bits
Режим сжатия : Lossy
Размер потока : 258 MiB (16%)
Язык : English
Default : No
Forced : No
Text #1
ID : 4
Формат : UTF-8
Кодек ID : S_TEXT/UTF8
Кодек ID/Info : UTF-8 Plain Text
Язык : Russian
Default : No
Forced : No
Text #2
ID : 5
Формат : UTF-8
Кодек ID : S_TEXT/UTF8
Кодек ID/Info : UTF-8 Plain Text
Язык : English
Default : No
Forced : No

Скриншоты

Обитель зла: Вымирание

Обитель зла: Вымирание / Resident Evil: Extinction
«At this time, without compromise»
Год выхода: 2007
Страна: США, Германия, Франция, Великобритания, Австралия
Жанр: Ужасы
Длительность: 01:34:05
Перевод: Профессиональный (Дубляж)
Субтитры: Русские, английские
Режиссер: Пол У. С. Андерсон
В ролях: Милла Йовович, Одед Фер, Эли Лартер, Айэйн Глен, Ашанти, Кристофер Иган, Спенсер Лок, Мэттью Мэрсден, Линден Эшби, Джейсон О'Мара-Описание: Элис, не раз уже спасавшая мир от смертельных вирусов и неминуемой гибели, вновь взялась за оружие. На этот раз ей предстоит сразиться с корпорацией «Амбрелла», работающей над реализацией зверского антигуманного проекта. Коварные политики и прагматичные ученые стремятся уничтожить людей и заменить их на более «совершенные» создания, заселив Землю неуязвимыми бессмертными клонами…- -Качество: BDRip-AVC
Контейнер: MKV
Видео кодек: H.264
Аудио кодек: AC3
Видео: H.264, 1479 Kbps, 1024x428 pix., 23.976 fps, High 10@L5.1
Аудио#1: AC-3, 48.0 KHz, 384 Kbps, 6 каналов, 16 bits (RUS)
Аудио#2: AC-3, 48.0 KHz, 384 Kbps, 6 каналов, 16 bits (ENG)

MediaInfo

General
Unique ID : 181906749717595715947286928344808452372 (0x88D9F733F7F31E4A9604C6FC6F187114)
Название : D:BDRip-AVCОбитель Зла (1-5) BDRip-AVC3.Обитель.зла.mkv
Формат : Matroska
Формат version : Version 4 / Version 2
Размер файла : 1.47 GiB
Длительность : 1h 34mn
Общий Битрейт mode : Variable
Общий Битрейт : 2 244 Kbps
Encoded date : UTC 2010-02-22 21:41:31
Создано приложением : mkvmerge v5.9.0 ('On The Loose') built on Dec 9 2012 15:37:01
Writing library : libebml v1.3.0 + libmatroska v1.4.0
Video
ID : 1
Формат : AVC
Формат/Info : Advanced Video Кодек
Формат profile : High 10@L5.1
Формат настройки, CABAC : Yes
Формат настройки, ReFrames : 16 frames
Кодек ID : V_MPEG4/ISO/AVC
Длительность : 1h 34mn
Битрейт mode : Variable
Битрейт : 1 479 Kbps
Maximum Битрейт : 30.0 Mbps
Width : 1 024 пикселей
Высота : 428 пикселей
Соотношение кадра : 2.40:1
Частота кадров mode : Constant
Частота кадров : 23.976 fps
Цветопередача : YUV
Chroma subsampling : 4:2:0
Разрядность : 10 bits
Тип сканирования : Progressive
Bits/(Pixel*Frame) : 0.141
Размер потока : 963 MiB (64%)
Writing library : x264 core 129 r2230+696+35 805d074 tMod [10-bit@all X86_64]
Encoding настройки : cabac=1 / ref=16 / deblock=1:-3:-3 / analyse=0x3:0x133 / me=tesa / subme=11 / psy=1 / fade_compensate=0.00 / psy_rd=1.00:0.15 / mixed_ref=1 / me_range=32 / chroma_me=1 / trellis=2 / 8x8dct=1 / cqm=0 / deadzone=21,11 / fast_pskip=1 / chroma_qp_offset=-3 / threads=2 / lookahead_threads=1 / sliced_threads=0 / nr=0 / decimate=1 / interlaced=0 / bluray_compat=0 / constrained_intra=0 / fgo=0 / bframes=11 / b_pyramid=2 / b_adapt=2 / b_bias=0 / direct=2 / weightb=1 / open_gop=0 / weightp=1 / keyint=240 / keyint_min=23 / scenecut=40 / intra_refresh=0 / rc_lookahead=50 / rc=2pass / mbtree=1 / bitrate=1479 / ratetol=2.0 / qcomp=0.60 / qpmin=0 / qpmax=51 / qpstep=4 / cplxblur=20.0 / qblur=0.5 / vbv_maxrate=30000 / vbv_bufsize=50000 / nal_hrd=vbr / ip_ratio=1.40 / aq=1:1.00
Язык : English
Default : Yes
Forced : No
Color primaries : BT.709
Transfer characteristics : BT.709
Matrix coefficients : BT.709
Audio #1
ID : 2
Формат : AC-3
Формат/Info : Audio Coding 3
Расширение режима : CM (complete main)
Формат настройки, Endianness : Big
Кодек ID : A_AC3
Длительность : 1h 34mn
Битрейт mode : Constant
Битрейт : 384 Kbps
Каналы(s) : 6 каналов
Каналы positions : Front: L C R, Side: L R, LFE
Частота : 48.0 KHz
Разрядность : 16 bits
Режим сжатия : Lossy
Размер потока : 258 MiB (17%)
Язык : Russian
Default : Yes
Forced : No
Audio #2
ID : 3
Формат : AC-3
Формат/Info : Audio Coding 3
Расширение режима : CM (complete main)
Формат настройки, Endianness : Big
Кодек ID : A_AC3
Длительность : 1h 34mn
Битрейт mode : Constant
Битрейт : 384 Kbps
Каналы(s) : 6 каналов
Каналы positions : Front: L C R, Side: L R, LFE
Частота : 48.0 KHz
Разрядность : 16 bits
Режим сжатия : Lossy
Размер потока : 258 MiB (17%)
Язык : English
Default : No
Forced : No
Text #1
ID : 4
Формат : UTF-8
Кодек ID : S_TEXT/UTF8
Кодек ID/Info : UTF-8 Plain Text
Язык : Russian
Default : Yes
Forced : No
Text #2
ID : 5
Формат : UTF-8
Кодек ID : S_TEXT/UTF8
Кодек ID/Info : UTF-8 Plain Text
Язык : English
Default : No
Forced : No

Скриншоты

Обитель зла: Жизнь после смерти

Обитель зла: Жизнь после смерти / Resident Evil:
Afterlife

«Experience a new dimension of evil»
Год выхода: 2010
Страна: США, Германия, Франция, Великобритания, Австралия
Жанр: Ужасы
Длительность: 01:36:52
Перевод: Профессиональный (Дубляж)
Субтитры: Русские, английские
Режиссер: Пол У. С. Андерсон
В ролях: Милла Йовович, Эли Лартер, Ким Коутс, Шоун Робертс, Серджо Перис-Менчета, Спенсер Лок, Борис Коджо, Вентворт Миллер, Сиенна Гиллори, Кейси Барнфилд-Описание: Элис продолжает свой путь в мире, поражённом вирусной инфекцией, превращающей людей в нежить. Героиня ищет оставшихся в живых, чтобы вывести их в безопасное место. Её смертельная битва с корпорацией Амбрелла выходит на новый уровень…- -Качество: BDRip-AVC
Контейнер: MKV
Видео кодек: H.264
Аудио кодек: AC3
Видео: H.264, 1503 Kbps, 1024x428 pix., 23.976 fps, High 10@L5.1
Аудио#1: AC-3, 48.0 KHz, 384 Kbps, 6 каналов, 16 bits (RUS)
Аудио#2: AC-3, 48.0 KHz, 384 Kbps, 6 каналов, 16 bits (ENG)

MediaInfo

General
Unique ID : 229623056474221860298711750193695918099 (0xACBFCAC309B54E3EB75352AE00F78813)
Название : D:BDRip-AVCОбитель Зла (1-5) BDRip-AVC4.Обитель.зла.mkv
Формат : Matroska
Формат version : Version 4 / Version 2
Размер файла : 1.54 GiB
Длительность : 1h 36mn
Общий Битрейт mode : Variable
Общий Битрейт : 2 270 Kbps
Encoded date : UTC 2010-02-22 21:41:31
Создано приложением : mkvmerge v5.9.0 ('On The Loose') built on Dec 9 2012 15:37:01
Writing library : libebml v1.3.0 + libmatroska v1.4.0
Video
ID : 1
Формат : AVC
Формат/Info : Advanced Video Кодек
Формат profile : High 10@L5.1
Формат настройки, CABAC : Yes
Формат настройки, ReFrames : 15 frames
Кодек ID : V_MPEG4/ISO/AVC
Длительность : 1h 36mn
Битрейт mode : Variable
Битрейт : 1 503 Kbps
Maximum Битрейт : 30.0 Mbps
Width : 1 024 пикселей
Высота : 428 пикселей
Соотношение кадра : 2.40:1
Частота кадров mode : Constant
Частота кадров : 23.976 fps
Цветопередача : YUV
Chroma subsampling : 4:2:0
Разрядность : 10 bits
Тип сканирования : Progressive
Bits/(Pixel*Frame) : 0.143
Размер потока : 1 010 MiB (64%)
Writing library : x264 core 129 r2230+696+35 805d074 tMod [10-bit@all X86_64]
Encoding настройки : cabac=1 / ref=15 / deblock=1:-3:-3 / analyse=0x3:0x133 / me=tesa / subme=11 / psy=1 / fade_compensate=0.00 / psy_rd=1.00:0.15 / mixed_ref=1 / me_range=32 / chroma_me=1 / trellis=2 / 8x8dct=1 / cqm=0 / deadzone=21,11 / fast_pskip=1 / chroma_qp_offset=-3 / threads=2 / lookahead_threads=1 / sliced_threads=0 / nr=0 / decimate=1 / interlaced=0 / bluray_compat=0 / constrained_intra=0 / fgo=0 / bframes=12 / b_pyramid=2 / b_adapt=2 / b_bias=0 / direct=2 / weightb=1 / open_gop=0 / weightp=1 / keyint=240 / keyint_min=23 / scenecut=40 / intra_refresh=0 / rc_lookahead=50 / rc=2pass / mbtree=1 / bitrate=1503 / ratetol=2.0 / qcomp=0.60 / qpmin=0 / qpmax=51 / qpstep=4 / cplxblur=20.0 / qblur=0.5 / vbv_maxrate=30000 / vbv_bufsize=50000 / nal_hrd=vbr / ip_ratio=1.40 / aq=1:1.00
Язык : English
Default : Yes
Forced : No
Color primaries : BT.709
Transfer characteristics : BT.709
Matrix coefficients : BT.709
Audio #1
ID : 5
Формат : AC-3
Формат/Info : Audio Coding 3
Расширение режима : CM (complete main)
Формат настройки, Endianness : Big
Кодек ID : A_AC3
Длительность : 1h 36mn
Битрейт mode : Constant
Битрейт : 384 Kbps
Каналы(s) : 6 каналов
Каналы positions : Front: L C R, Side: L R, LFE
Частота : 48.0 KHz
Разрядность : 16 bits
Режим сжатия : Lossy
Размер потока : 266 MiB (17%)
Язык : Russian
Default : Yes
Forced : No
Audio #2
ID : 6
Формат : AC-3
Формат/Info : Audio Coding 3
Расширение режима : CM (complete main)
Формат настройки, Endianness : Big
Кодек ID : A_AC3
Длительность : 1h 36mn
Битрейт mode : Constant
Битрейт : 384 Kbps
Каналы(s) : 6 каналов
Каналы positions : Front: L C R, Side: L R, LFE
Частота : 48.0 KHz
Разрядность : 16 bits
Режим сжатия : Lossy
Размер потока : 266 MiB (17%)
Язык : English
Default : No
Forced : No
Text #1
ID : 2
Формат : UTF-8
Кодек ID : S_TEXT/UTF8
Кодек ID/Info : UTF-8 Plain Text
Язык : Russian
Default : No
Forced : No
Text #2
ID : 3
Формат : UTF-8
Кодек ID : S_TEXT/UTF8
Кодек ID/Info : UTF-8 Plain Text
Title : Forced
Язык : Russian
Default : Yes
Forced : No
Text #3
ID : 4
Формат : UTF-8
Кодек ID : S_TEXT/UTF8
Кодек ID/Info : UTF-8 Plain Text
Язык : English
Default : No
Forced : No

Скриншоты

Обитель зла: Возмездие

Обитель зла: Возмездие / Resident Evil: Retribution
«Evil goes global»
Год выхода: 2012
Страна: США, Германия, Франция, Великобритания, Австралия
Жанр: Ужасы
Длительность: 01:35:38
Перевод: Профессиональный (Дубляж)
Субтитры: Русские, английские
Режиссер: Пол У. С. Андерсон
В ролях: Милла Йовович, Сиенна Гиллори, Мишель Родригес, Ариана Энджинир, Ли Бинбин, Борис Коджо, Йохан Урб, Робин Касянов, Кевин Дюран, Офилио Портильо-Описание: Смертельный T-вирус, созданный в лабораториях корпорации «Амбрелла», продолжает захватывать Землю, превращая мировое население в легионы пожирающих плоть зомби. Последняя надежда человечества Элис внедряется в самое сердце самой тайной исследовательской базы корпорации и узнает еще больше о собственном таинственном прошлом. Не имея путей к отступлению, Элис продолжает искать виновных в глобальной катастрофе. Вызов, который она принимала в Токио, Нью-Йорке, Вашингтоне и даже в Москве, приводит ее в итоге к взрывающему сознание откровению, которое заставит ее переосмыслить все, что она полагала правдой. С помощью новых союзников и старых друзей, Элис будет сражаться за выживание и убегать из враждебного мира. Отсчет времени начат…- -Качество: BDRip-AVC
Контейнер: MKV
Видео кодек: H.264
Аудио кодек: AC3
Видео: H.264, 1509 Kbps, 1024x426 pix., 23.976 fps, High 10@L5.1
Аудио#1: AC-3, 48.0 KHz, 384 Kbps, 6 каналов, 16 bits (RUS)
Аудио#2: AC-3, 48.0 KHz, 384 Kbps, 6 каналов, 16 bits (ENG)

MediaInfo

General
Unique ID : 219991320517728325136223230380853226921 (0xA580C983E8FBF618A80760763014EDA9)
Название : D:BDRip-AVCОбитель Зла (1-5) BDRip-AVC5.Обитель.зла.mkv
Формат : Matroska
Формат version : Version 4 / Version 2
Размер файла : 1.52 GiB
Длительность : 1h 35mn
Общий Битрейт mode : Variable
Общий Битрейт : 2 272 Kbps
Encoded date : UTC 2010-02-22 21:41:31
Создано приложением : mkvmerge v5.9.0 ('On The Loose') built on Dec 9 2012 15:37:01
Writing library : libebml v1.3.0 + libmatroska v1.4.0
Video
ID : 1
Формат : AVC
Формат/Info : Advanced Video Кодек
Формат profile : High 10@L5.1
Формат настройки, CABAC : Yes
Формат настройки, ReFrames : 16 frames
Кодек ID : V_MPEG4/ISO/AVC
Длительность : 1h 35mn
Битрейт mode : Variable
Битрейт : 1 509 Kbps
Maximum Битрейт : 30.0 Mbps
Width : 1 024 пикселей
Высота : 426 пикселей
Соотношение кадра : 2.40:1
Частота кадров mode : Constant
Частота кадров : 23.976 fps
Цветопередача : YUV
Chroma subsampling : 4:2:0
Разрядность : 10 bits
Тип сканирования : Progressive
Bits/(Pixel*Frame) : 0.144
Размер потока : 998 MiB (64%)
Writing library : x264 core 129 r2230+696+35 805d074 tMod [10-bit@all X86_64]
Encoding настройки : cabac=1 / ref=16 / deblock=1:-3:-3 / analyse=0x3:0x133 / me=tesa / subme=11 / psy=1 / fade_compensate=0.00 / psy_rd=1.00:0.15 / mixed_ref=1 / me_range=32 / chroma_me=1 / trellis=2 / 8x8dct=1 / cqm=0 / deadzone=21,11 / fast_pskip=1 / chroma_qp_offset=-3 / threads=4 / lookahead_threads=1 / sliced_threads=0 / nr=0 / decimate=1 / interlaced=0 / bluray_compat=0 / constrained_intra=0 / fgo=0 / bframes=10 / b_pyramid=2 / b_adapt=2 / b_bias=0 / direct=2 / weightb=1 / open_gop=0 / weightp=1 / keyint=240 / keyint_min=23 / scenecut=40 / intra_refresh=0 / rc_lookahead=50 / rc=2pass / mbtree=1 / bitrate=1509 / ratetol=2.0 / qcomp=0.60 / qpmin=0 / qpmax=51 / qpstep=4 / cplxblur=20.0 / qblur=0.5 / vbv_maxrate=30000 / vbv_bufsize=50000 / nal_hrd=vbr / ip_ratio=1.40 / aq=1:1.00
Язык : English
Default : Yes
Forced : No
Color primaries : BT.709
Transfer characteristics : BT.709
Matrix coefficients : BT.709
Audio #1
ID : 2
Формат : AC-3
Формат/Info : Audio Coding 3
Расширение режима : CM (complete main)
Формат настройки, Endianness : Big
Кодек ID : A_AC3
Длительность : 1h 35mn
Битрейт mode : Constant
Битрейт : 384 Kbps
Каналы(s) : 6 каналов
Каналы positions : Front: L C R, Side: L R, LFE
Частота : 48.0 KHz
Разрядность : 16 bits
Режим сжатия : Lossy
Размер потока : 263 MiB (17%)
Язык : Russian
Default : Yes
Forced : No
Audio #2
ID : 3
Формат : AC-3
Формат/Info : Audio Coding 3
Расширение режима : CM (complete main)
Формат настройки, Endianness : Big
Кодек ID : A_AC3
Длительность : 1h 35mn
Битрейт mode : Constant
Битрейт : 384 Kbps
Каналы(s) : 6 каналов
Каналы positions : Front: L C R, Side: L R, LFE
Частота : 48.0 KHz
Разрядность : 16 bits
Режим сжатия : Lossy
Размер потока : 263 MiB (17%)
Язык : English
Default : No
Forced : No
Text #1
ID : 4
Формат : UTF-8
Кодек ID : S_TEXT/UTF8
Кодек ID/Info : UTF-8 Plain Text
Язык : Russian
Default : No
Forced : No
Text #2
ID : 5
Формат : UTF-8
Кодек ID : S_TEXT/UTF8
Кодек ID/Info : UTF-8 Plain Text
Язык : English
Default : No
Forced : No

Скриншоты

[Торрент-статистика]
[Профиль]  [ЛС] 

sergei78

Пол:

Стаж: 3 года 11 месяцев

Сообщений: 92

Репутация: 120 [+] [-]

Откуда: Бывший СССР: "Связист Кстово 100/40"

Пост 01-Июл-2014 12:17 (спустя 48 минут)

[Цитировать] 

А на фига использовали профиль High 10@L5.1
Не один ТВ и сетевой плеер не увидит этот профиль.
[Торрент-статистика]
[Профиль]  [ЛС] 

luis5 ®

Пол:

Стаж: 3 года 11 месяцев

Сообщений: 125

Репутация: 51 [+] [-]

Откуда: Кузбасс

Пост 01-Июл-2014 12:56 (спустя 38 минут)

[Цитировать] 

Ну и к чему твои высказывания ? bw
[Торрент-статистика]
[Профиль]  [ЛС] 

nova1980

Пол:

Стаж: 5 лет 10 месяцев

Сообщений: 819

Репутация: 523 [+] [-]

Откуда: Одесса Мама

Пост 02-Июл-2014 21:57 (спустя 1 день 9 часов)

[Цитировать] 

sergei78, Я уже лет 5 смотрю все с компа на 42 диагонали и не заморачиваюсь!
luis5, Клевый релиз, золото однозначно!!!

_________________
Мои Раздачи
[Торрент-статистика]
[Профиль]  [ЛС] 

luis5 ®

Пол:

Стаж: 3 года 11 месяцев

Сообщений: 125

Репутация: 51 [+] [-]

Откуда: Кузбасс

Пост 03-Июл-2014 05:20 (спустя 7 часов)

[Цитировать] 

nova1980, спасибки bk
[Торрент-статистика]
[Профиль]  [ЛС] 

megavid

Пол:

Стаж: 1 год 11 месяцев

Сообщений: 10

Репутация: 0 [+] [-]

Откуда: Украина

Пост 15-Ноя-2015 21:44 (спустя 1 год 4 месяца)

[Цитировать] 

Кто-нибудь дайте скачать сию прекраснейшую пенталогию, пжлста!!!
[Торрент-статистика]
[Профиль]  [ЛС] 

Волк

Пол:

Стаж: 5 лет 10 месяцев

Сообщений: 691

Репутация: 297 [+] [-]

Откуда: Армения

Пост 16-Ноя-2015 09:12 (спустя 11 часов)

[Цитировать] 

megavid, Вы перекачайте торрент и раздача начнетса
[Торрент-статистика]
[Профиль]  [ЛС] 

desa

Пол:

Стаж: 5 лет 11 месяцев

Сообщений: 249

Репутация: 184 [+] [-]

Откуда: Урал, Ревда

Пост 16-Ноя-2015 18:17 (спустя 9 часов)

[Цитировать] 

Надо пересмотреть !
рс Скачаю, на раздаче постою, если скачаю ab

_________________
Не проверена раздача - напиши Модератору !
[Торрент-статистика]
[Профиль]  [ЛС] 
Показать сообщения:    
Ответить на тему

Текущее время: Сегодня 22:23

Часовой пояс: GMT + 4



Вы не можете начинать темы
Вы не можете отвечать на сообщения
Вы не можете редактировать свои сообщения
Вы не можете удалять свои сообщения
Вы не можете голосовать в опросах
Вы не можете прикреплять файлы к сообщениям
Вы не можете скачивать файлы