Страшные сказки / Грошовые ужасы / Penny Dreadful / Сезон:1 /Серия 1-8 из 8 (Хуан Антонио Байона, Коки Гидройч, Джеймс Хоуз) [2014 г., ужасы, драма, HDTV 720p] BaibaKo

Ответить на тему
 
Автор
Сообщение

awk05 ®

Пол:

Стаж: 5 лет 10 месяцев

Сообщений: 1352

Репутация: 275 [+] [-]

Откуда: Западная Украина Ривне

Пост 30-Апр-2014 21:30

[Цитировать] 

--Страшные сказки / Грошовые ужасы / Penny Dreadful«There is some thing within us all»-- Год выпуска: 2014
Страна: США, Ирландия, Великобритания
Жанр: Ужасы, триллер
Сезон/Серия: Сезон:1 /Серия 1-8 из 8
Продолжительность: 8 х ~00:52:00 серия
Перевод: Профессиональный многоголосый закадровый - BaibaKo
Субтитры: отсутствуют--Режиссер: Хуан Антонио Байона, Коки Гидройч, Джеймс Хоуз--Актеры: Тимоти Далтон, Ева Грин, Джош Хартнетт, Рори Киннер, Хелен МакКрори, Билли Пайпер, Гарри Тредэвэй, Рив Карни, Алан Армстронг, Рик Берн и др.--Описание: Сериал возвращает нас ко всеми любимым героям, монстрам и злодеям. В викторианском Лондоне, где происходит действие сериала, никогда не было спокойно и безопасно. Особенно теперь, когда литературные персонажи ожили и наводят ужас на город. Неминуема встреча с вечно молодым Дорианом Греем, героем одноименного романа Оскара Уайльда, доктором Франкенштейном и его зомби-монстром, хладнокровным графом Дракулой, охотником на вампиров и оборотней Ван Хельсингом и множеством других уникальных персонажей.--Качество видео:HDTV 720p
Формат видео: MKV
Видео кодек: AVC (High@L4.1)
Аудио кодек: AC3
Видео: AVC, 1280x720 (16:9), 23.976 fps, 4 096 Kbps (0.185 bit/pixel)bit/pixel
Аудио 1: AC-3, 48.0 KHz, 6 ch, 384 Kbps, CBR [RUS]
Аудио 2: AC-3, 48.0 KHz, 6 ch, 384 Kbps, CBR [ENG]--Релиз-группа: BaibaKo
Озвучка: Юлия Котурбаш, Anna_Smile, Олекса Мельник и Акмал Гурезов
Автор перевода: Наталья Черненко и Татьяна Ланцетова--

Тех. данные (MI)

Общее
Penny Dreadful - Грошовые ужасы. Сезон 1. BaibaKo. 720p\Penny.Dreadful.s01e01.HDTV720p.Rus.Eng.BaibaKo.tv.mkv
Формат : Matroska
Версия формата : Version 4 / Version 2
Размер файла : 1,79 Гбайт
Продолжительность : 52 м.
Общий поток : 4865 Кбит/сек
Дата кодирования : UTC 2014-04-30 02:16:02
Программа кодирования : mkvmerge v6.7.0 ('Back to the Ground') 64bit built on Jan 8 2014 15:10:52
Библиотека кодирования : libebml v1.3.0 + libmatroska v1.4.1
Видео
Идентификатор : 1
Формат : AVC
Формат/Информация : Advanced Video Codec
Профиль формата : High@L4.1
Параметр CABAC формата : Да
Параметр ReFrames формата : 5 кадров
Идентификатор кодека : V_MPEG4/ISO/AVC
Продолжительность : 52 м.
Битрейт : 4096 Кбит/сек
Ширина : 1280 пикселей
Высота : 720 пикселей
Соотношение сторон : 16:9
Режим частоты кадров : Постоянный
Частота кадров : 23,976 кадра/сек
Цветовое пространство : YUV
Субдискретизация насыщенности : 4:2:0
Битовая глубина : 8 бит
Тип развёртки : Прогрессивная
Бит/(Пиксели*Кадры) : 0.185
Размер потока : 1,47 Гбайт (82%)
Библиотека кодирования : x264 core 130 r2273 b3065e6
Настройки программы : cabac=1 / ref=5 / deblock=1:-1:-1 / analyse=0x3:0x113 / me=umh / subme=8 / psy=1 / psy_rd=1.00:0.15 / mixed_ref=1 / me_range=16 / chroma_me=1 / trellis=1 / 8x8dct=1 / cqm=0 / deadzone=21,11 / fast_pskip=1 / chroma_qp_offset=-3 / threads=12 / lookahead_threads=2 / sliced_threads=0 / nr=0 / decimate=1 / interlaced=0 / bluray_compat=0 / constrained_intra=0 / bframes=3 / b_pyramid=2 / b_adapt=2 / b_bias=0 / direct=3 / weightb=1 / open_gop=0 / weightp=2 / keyint=240 / keyint_min=24 / scenecut=40 / intra_refresh=0 / rc_lookahead=50 / rc=2pass / mbtree=1 / bitrate=4096 / ratetol=1.0 / qcomp=0.60 / qpmin=0 / qpmax=69 / qpstep=4 / cplxblur=20.0 / qblur=0.5 / vbv_maxrate=62500 / vbv_bufsize=78125 / nal_hrd=none / ip_ratio=1.40 / aq=1:1.00
Язык : English
Default : Да
Forced : Нет
Основные цвета : BT.709
Характеристики трансфера : BT.709
Коэффициенты матрицы : BT.709
Аудио #1
Идентификатор : 2
Формат : AC-3
Формат/Информация : Audio Coding 3
Расширение режима : CM (complete main)
Параметр Endianness формата : Big
Идентификатор кодека : A_AC3
Продолжительность : 52 м.
Вид битрейта : Постоянный
Битрейт : 384 Кбит/сек
Каналы : 6 каналов
Расположение каналов : Front: L C R, Side: L R, LFE
Частота : 48,0 КГц
Битовая глубина : 16 бит
Метод сжатия : С потерями
Размер потока : 145 Мбайт (8%)
Язык : Russian
Default : Да
Forced : Нет
Аудио #2
Идентификатор : 3
Формат : AC-3
Формат/Информация : Audio Coding 3
Расширение режима : CM (complete main)
Параметр Endianness формата : Big
Идентификатор кодека : A_AC3
Продолжительность : 52 м.
Вид битрейта : Постоянный
Битрейт : 384 Кбит/сек
Каналы : 6 каналов
Расположение каналов : Front: L C R, Side: L R, LFE
Частота : 48,0 КГц
Битовая глубина : 16 бит
Метод сжатия : С потерями
Размер потока : 145 Мбайт (8%)
Язык : English
Default : Нет
Forced : Нет

Список серий

01. Night Work / Ночное дело
02. Séance / Спиритический сеанс
03. Resurrection / Воскрешение
04. Demimonde / Полусвет
05. Closer Than Sisters / Ближе, чем сёстры
06. What Death Can Join Together / Что смерть соединит
07. Possession / Владение
08. Grand Guignol / Гран-Гиньоль

Раздача ведется путем добавления новых серий

Внимание! Раздача ведётся путём добавления новых серий; при каждом добавлении создаётся новый торрент.
Чтобы начать докачку новой серии, пользователям необходимо сделать следующее:
1. Остановить скачивание;
2. Удалить старый торрент у себя из клиента (старые серии удалять не надо);
3. Скачать новый торрент и запустить его у себя в клиенте вместо старого, при этом указать клиенту путь в старую папку куда и должно происходить скачивание новых серий. Ваш клиент при этом должен произвести хеширование (проверку) старой папки и будет докачивать только те серии, которых у вас ещё нет. Старые серии при этом не удаляются, а продолжают раздаваться! Eсли вы уже удалили старые серии, то предотвратить повторную закачку старых серий можно, отжав галочку в соответствующих местах при запуске нового торрента.

Скриншоты




_________________
[Торрент-статистика]
[Профиль]  [ЛС] 

johnnyf

Пол:

Стаж: 5 лет 6 месяцев

Сообщений: 24

Репутация: 6 [+] [-]

Пост 26-Окт-2015 01:03 (спустя 1 год 5 месяцев)

[Цитировать] 

эммм... а где раздача? Ничего не качается почему-то. Другие фильмы качает, а этот нет.
[Торрент-статистика]
[Профиль]  [ЛС] 

johnnyf

Пол:

Стаж: 5 лет 6 месяцев

Сообщений: 24

Репутация: 6 [+] [-]

Пост 27-Окт-2015 20:45 (спустя 1 день 19 часов)

[Цитировать] 

Ребят, ну постойте на раздаче, совсем немного осталось...
[Торрент-статистика]
[Профиль]  [ЛС] 
Показать сообщения:    
Ответить на тему

Текущее время: Сегодня 18:28

Часовой пояс: GMT + 4



Вы не можете начинать темы
Вы не можете отвечать на сообщения
Вы не можете редактировать свои сообщения
Вы не можете удалять свои сообщения
Вы не можете голосовать в опросах
Вы не можете прикреплять файлы к сообщениям
Вы не можете скачивать файлы