Родина / Homeland / Сезон: 4 / Серия 1-10 из 12 (Майкл Куэста, Кларк Джонсон, Джеффри Начманофф) [2014 г., триллер, драма, детектив, WEB-DL 720p] MVO LostFilm (Обновляемая)

Ответить на тему
 
Автор
Сообщение

awk05 ®

Пол:

Стаж: 5 лет 7 месяцев

Сообщений: 1352

Репутация: 275 [+] [-]

Откуда: Западная Украина Ривне

Пост 14-Окт-2014 02:46

[Цитировать] 

--Родина / Homeland«The nation sees a hero. She sees a threat»-- Страна: США
Год выпуска: 2014
Жанр: триллер, драма, детектив
Сезон/Серия: Сезон: 4 / Серия 1-10 из 12
Продолжительность: 12 х ~00:48:00 серия
Перевод: Многоголосый закадровый, профессиональный + Original
Озвучка / Автор перевода: LostFilm
Субтитры: отсутствуют--Режиссер: Майкл Куэста, Кларк Джонсон, Джеффри Начманофф--Актеры: Клэр Дэйнс, Дамиан Льюис, Морена Баккарин, Дэвид Хэрвуд, Диего Клаттенхофф, Джексон Паке, Моргон Сэйлор, Мэнди Пэтинкин, Дэвид Марсиано, Навид Негабан и др.--Описание фильма: Противостояние главного террориста Америки и блондинки из ЦРУ закончено. Но это еще не конец. Броуди убит, Соул уволен из ЦРУ, а Кэрри получила новое задание и отправляется в одну из самых горячих точек Ближнего Востока. Любовь к родине и чувство долга против экстремизма и террора. Последний сезон самого патриотичного из современных американских сериалов.--Качество видео: WEB-DL 720p
Формат видео: MKV
Видео кодек: AVC (High@L3.1)
Аудио кодек: AC-3
Видео: AVC, 1280x720 (16:9), 23.976 fps, 4 000 Kbps (0.181 bit/pixel)
Аудио 1: AC-3, 48.0 KHz, 2 ch, 384 Kbps, CBR, 16 bits [Русский]
Аудио 2: AC-3, 48.0 KHz, 2 ch, 384 Kbps, CBR, 16 bits [Английский] -- --

Список серий

01. The Drone Queen / Королева дронов
02. Trylon and Perisphere / Трилон и Перисфера
03. Шальвар-камиз / Shalwar Kameez
04. Запасной вариант /Iron in the Fire
05. About a Boy / Мой мальчик
06. From A to B and Back Again / Из пункта А в пункт Б и обратно
07. Redux / Возвращение
08. Halfway to a Donut / Наполовину пончик
09. There's Something Else Going On / Затевается что-то ещё
10. 13 Hours in Islamabad / 13 часов в Исламабаде

Кадры из фильма

Тех. данные (MI)

Код:
Общее
Уникальный идентификатор                 : 252646985715170107563999207667939336803 (0xBE120A1DA45E713CAF494E16C82AE263)
Полное имя                               : E:\тест\Родина\Родина (сезон 4) Homeland (2014) WEB-DL 720p - LostFilm\Homeland.S04E01.720p.rus.LostFilm.TV.mkv
Формат                                   : Matroska
Версия формата                           : Version 4 / Version 2
Размер файла                             : 1,66 Гбайт
Продолжительность                        : 49 м.
Общий поток                              : 4845 Кбит/сек
Дата кодирования                         : UTC 2014-10-07 16:06:13
Программа кодирования                    : mkvmerge v7.2.0 ('On Every Street') 64bit built on Sep 13 2014 15:52:10
Библиотека кодирования                   : libebml v1.3.0 + libmatroska v1.4.1
Видео
Идентификатор                            : 1
Формат                                   : AVC
Формат/Информация                        : Advanced Video Codec
Профиль формата                          : High@L3.1
Параметр CABAC формата                   : Нет
Параметр ReFrames формата                : 2 кадра
Идентификатор кодека                     : V_MPEG4/ISO/AVC
Продолжительность                        : 49 м.
Битрейт                                  : 4000 Кбит/сек
Ширина                                   : 1280 пикселей
Высота                                   : 720 пикселей
Соотношение сторон                       : 16:9
Режим частоты кадров                     : Постоянный
Частота кадров                           : 23,976 кадра/сек
Цветовое пространство                    : YUV
Субдискретизация насыщенности            : 4:2:0
Битовая глубина                          : 8 бит
Тип развёртки                            : Прогрессивная
Бит/(Пиксели*Кадры)                      : 0.181
Размер потока                            : 1,36 Гбайт (82%)
Библиотека кодирования                   : x264 core 112 r1834 a51816a
Настройки программы                      : cabac=0 / ref=3 / deblock=1:0:0 / analyse=0x1:0x111 / me=hex / subme=7 / psy=1 / psy_rd=1.00:0.00 / mixed_ref=1 / me_range=16 / chroma_me=1 / trellis=1 / 8x8dct=0 / cqm=0 / deadzone=21,11 / fast_pskip=1 / chroma_qp_offset=-2 / threads=6 / sliced_threads=0 / nr=0 / decimate=1 / interlaced=0 / constrained_intra=0 / bframes=3 / b_pyramid=2 / b_adapt=1 / b_bias=0 / direct=1 / weightb=1 / open_gop=0 / weightp=2 / keyint=250 / keyint_min=25 / scenecut=40 / intra_refresh=0 / rc_lookahead=40 / rc=abr / mbtree=1 / bitrate=4000 / ratetol=1.0 / qcomp=0.60 / qpmin=0 / qpmax=51 / qpstep=4 / vbv_maxrate=5000 / vbv_bufsize=2000 / ip_ratio=1.40 / aq=1:1.00 / nal_hrd=none
Язык                                     : English
Default                                  : Да
Forced                                   : Нет
Основные цвета                           : BT.709
Характеристики трансфера                 : BT.709
Коэффициенты матрицы                     : BT.709
Аудио #1
Идентификатор                            : 2
Формат                                   : AC-3
Формат/Информация                        : Audio Coding 3
Расширение режима                        : CM (complete main)
Параметр Endianness формата              : Big
Идентификатор кодека                     : A_AC3
Продолжительность                        : 49 м.
Вид битрейта                             : Постоянный
Битрейт                                  : 384 Кбит/сек
Каналы                                   : 2 канала
Расположение каналов                     : Front: L R
Частота                                  : 48,0 КГц
Битовая глубина                          : 16 бит
Метод сжатия                             : С потерями
Размер потока                            : 135 Мбайт (8%)
Заголовок                                : LostFilm
Язык                                     : Russian
Default                                  : Да
Forced                                   : Нет
Аудио #2
Идентификатор                            : 3
Формат                                   : AC-3
Формат/Информация                        : Audio Coding 3
Расширение режима                        : CM (complete main)
Параметр Endianness формата              : Big
Идентификатор кодека                     : A_AC3
Продолжительность                        : 49 м.
Вид битрейта                             : Постоянный
Битрейт                                  : 384 Кбит/сек
Каналы                                   : 2 канала
Расположение каналов                     : Front: L R
Частота                                  : 48,0 КГц
Битовая глубина                          : 16 бит
Метод сжатия                             : С потерями
Размер потока                            : 135 Мбайт (8%)
Язык                                     : English
Default                                  : Нет
Forced                                   : Нет

Внимание! Раздача ведётся путём добавления новых серий

Внимание! Раздача ведётся путём добавления новых серий; при каждом добавлении создаётся новый торрент.
Чтобы начать докачку новой серии, пользователям необходимо сделать следующее:
1. Остановить скачивание;
2. Удалить старый торрент у себя из клиента (старые серии удалять не надо);
3. Скачать новый торрент и запустить его у себя в клиенте вместо старого, при этом указать клиенту путь в старую папку куда и должно происходить скачивание новых серий. Ваш клиент при этом должен произвести хеширование (проверку) старой папки и будет докачивать только те серии, которых у вас ещё нет. Старые серии при этом не удаляются, а продолжают раздаваться! Eсли вы уже удалили старые серии, то предотвратить повторную закачку старых серий можно, отжав галочку в соответствующих местах при запуске нового торрента.
Альтернативные и предыдущие раздачи

_________________


Последний раз редактировалось: awk05 (2014-12-10 12:07), всего редактировалось 14 раз(а)
[Торрент-статистика]
[Профиль]  [ЛС] 

ArtZak

Пол:

Стаж: 6 лет 2 месяца

Сообщений: 2996

Репутация: 1363 [+] [-]

Откуда: Россия

Пост 15-Окт-2014 20:08 (спустя 1 день 17 часов)

[Цитировать] 

О! Уже обновление!
[Торрент-статистика]
[Профиль]  [ЛС] 

Nightmare_Baron

Стаж: 2 года 4 месяца

Сообщений: 1

Репутация: 0 [+] [-]

Пост 09-Сен-2015 03:02 (спустя 10 месяцев 24 дня)

[Цитировать] 

дайте скорости
[Торрент-статистика]
[Профиль]  [ЛС] 
Показать сообщения:    
Ответить на тему

Текущее время: Сегодня 16:30

Часовой пояс: GMT + 4



Вы не можете начинать темы
Вы не можете отвечать на сообщения
Вы не можете редактировать свои сообщения
Вы не можете удалять свои сообщения
Вы не можете голосовать в опросах
Вы не можете прикреплять файлы к сообщениям
Вы не можете скачивать файлы