В простом виде / In Plain Sight / Сезон: 5 / Серии: 1-8 (8) (Дэн Лернер / Dan Lerner, Энди Волк / Andy Wolk, Брайан Спайсер / Bryan Spicer) [2012, США, триллер, драма, криминал, WEB-DL 720p] MVO (Fox Crime)

Ответить на тему
 
Автор
Сообщение

awk05 ®

Пол:

Стаж: 5 лет 7 месяцев

Сообщений: 1352

Репутация: 275 [+] [-]

Откуда: Западная Украина Ривне

Пост 01-Окт-2014 19:34

[Цитировать] 

--В простом виде / In Plain Sight «Welcome to witness protection. Now get lost.»-- Страна: США
Год выпуска: 2012
Жанр: триллер, драма, криминал, детектив
Сезон/Серия: Сезон:5 / Серия 1-8 из 8
Продолжительность: 13 х ~00:42:00
Перевод: Профессиональный (многоголосый, закадровый) + Original
Озвучка / Автор перевода: Fox Crime
Субтитры: отсутствуют--Режиссер: Дэн Лернер / Dan Lerner, Энди Волк / Andy Wolk, Брайан Спайсер / Bryan Spicer--В ролях: Мэри МакКормак (Mary Shannon), Фред Уэллер (Marshall Mann), Пол Бен-Виктор (Stan McQueen), Николь Хильтц (Brandi Shannon), Лесли Энн Уоррен (Jinx Shannon), Кристиан де ла Фуэнте (Raphael Ramirez), Джошуа Малина (Peter Alpert), Tangie Ambrose (Delia Parmalee), Тодд Уильямс (Detective Robert Dershowitz), Рейчел Бостон (Detective Abigail Chaffee), Холли Мэйплс (Eleanor Prince), Али Марш (Dr. Shelley Finkel)--Описание: Защитить свидетелей, когда те дают показания против самых ужасных преступников - вот главная задача американских маршалов. Именно эти судебные чиновники обеспечивают безопасность и анонимность всем людям, попавшим в программу по защите свидетелей. Мэри Шэннон - красивая и сильная женщина-маршал. Непростую работу Мэри совмещает с постоянной заботой о своей проблемной семье, в которую входят асоциальная сестра и эксцентричная мать.--Качество видео: WEB-DL 720p
Формат видео: MKV
Видео кодек: AVC (High@L3.1)
Аудио кодек: AC-3
Видео: AVC, 1280x720 (16:9), 23.976 fps, 3 838 Kbps (0.174 bit/pixel)
Аудио 1: AC-3, 48.0 KHz, 2 ch, 192 Kbps, CBR, 16 bits [Русский]
Аудио 2: AC-3, 48.0 KHz, 6 ch, 384 Kbps, CBR, 16 bits [Английский] -- --

Тех. данные (MI)

Код:
Общее
Уникальный идентификатор                 : 196348048227520499645826131003324340441 (0x93B74231029FD3A3AF5D2B8FAFE998D9)
Полное имя                               : E:\тест\In.Plain.Sight\In.Plain.Sight.S05.720p.WEB-DL.FoxCrime\In.Plain.Sight.S05E01.720p.WEB-DL.FoxCrime.mkv
Формат                                   : Matroska
Версия формата                           : Version 2
Размер файла                             : 1,36 Гбайт
Продолжительность                        : 43 м.
Общий поток                              : 4504 Кбит/сек
Название фильма                          : In Plain Sight S05E01 'The Anti-Social Network' by SPS
Дата кодирования                         : UTC 2013-01-12 19:14:03
Программа кодирования                    : mkvmerge v5.8.0 ('No Sleep / Pillow') built on Sep  2 2012 15:37:04
Библиотека кодирования                   : libebml v1.2.3 + libmatroska v1.3.0
Видео
Идентификатор                            : 1
Формат                                   : AVC
Формат/Информация                        : Advanced Video Codec
Профиль формата                          : High@L3.1
Параметр CABAC формата                   : Нет
Параметр ReFrames формата                : 2 кадра
Идентификатор кодека                     : V_MPEG4/ISO/AVC
Продолжительность                        : 43 м.
Битрейт                                  : 3838 Кбит/сек
Ширина                                   : 1280 пикселей
Высота                                   : 720 пикселей
Соотношение сторон                       : 16:9
Режим частоты кадров                     : Постоянный
Частота кадров                           : 23,976 кадра/сек
Цветовое пространство                    : YUV
Субдискретизация насыщенности            : 4:2:0
Битовая глубина                          : 8 бит
Тип развёртки                            : Прогрессивная
Бит/(Пиксели*Кадры)                      : 0.174
Размер потока                            : 1,16 Гбайт (85%)
Язык                                     : English
Default                                  : Да
Forced                                   : Нет
Основные цвета                           : BT.709
Характеристики трансфера                 : BT.709
Коэффициенты матрицы                     : BT.709
Аудио #1
Идентификатор                            : 2
Формат                                   : AC-3
Формат/Информация                        : Audio Coding 3
Расширение режима                        : CM (complete main)
Параметр Endianness формата              : Big
Идентификатор кодека                     : A_AC3
Продолжительность                        : 43 м.
Вид битрейта                             : Постоянный
Битрейт                                  : 192 Кбит/сек
Каналы                                   : 2 канала
Расположение каналов                     : Front: L R
Частота                                  : 48,0 КГц
Битовая глубина                          : 16 бит
Метод сжатия                             : С потерями
Размер потока                            : 59,2 Мбайт (4%)
Заголовок                                : FoxCrime
Язык                                     : Russian
Default                                  : Да
Forced                                   : Нет
Аудио #2
Идентификатор                            : 3
Формат                                   : AC-3
Формат/Информация                        : Audio Coding 3
Расширение режима                        : CM (complete main)
Параметр Endianness формата              : Big
Идентификатор кодека                     : A_AC3
Продолжительность                        : 43 м.
Вид битрейта                             : Постоянный
Битрейт                                  : 384 Кбит/сек
Каналы                                   : 6 каналов
Расположение каналов                     : Front: L C R, Side: L R, LFE
Частота                                  : 48,0 КГц
Битовая глубина                          : 16 бит
Метод сжатия                             : С потерями
Размер потока                            : 118 Мбайт (9%)
Язык                                     : English
Default                                  : Нет
Forced                                   : Нет

Кадры из фильма


_________________
[Торрент-статистика]
[Профиль]  [ЛС] 

vasanton

Пол:

Стаж: 2 года 6 месяцев

Сообщений: 5

Репутация: 3 [+] [-]

Откуда: Эстония

Пост 27-Авг-2015 20:20 (спустя 10 месяцев 26 дней)

[Цитировать] 

Если раздача серебряная, почему засчитали полный объём скаченного...
[Торрент-статистика]
[Профиль]  [ЛС] 

alien.09

Пол:

Стаж: 4 года 9 месяцев

Сообщений: 753

Репутация: 565 [+] [-]

Пост 27-Авг-2015 21:45 (спустя 1 час 24 минуты)

[Цитировать] 

виноват кризис на фондовых рынках... argentum не в цене...

_________________
Правообладатели, убейтесь об эту надпись.
[Торрент-статистика]
[Профиль]  [ЛС] 

vasanton

Пол:

Стаж: 2 года 6 месяцев

Сообщений: 5

Репутация: 3 [+] [-]

Откуда: Эстония

Пост 27-Авг-2015 22:36 (спустя 50 минут)

[Цитировать] 

Ну, да, как что, так кризис...
[Торрент-статистика]
[Профиль]  [ЛС] 

ArtZak

Пол:

Стаж: 6 лет 2 месяца

Сообщений: 2996

Репутация: 1363 [+] [-]

Откуда: Россия

Пост 28-Авг-2015 12:08 (спустя 13 часов)

[Цитировать] 

51122Если раздача серебряная, почему засчитали полный объём скаченного...
Написал Администратору - в ближайшее время баг пофиксят.
[Торрент-статистика]
[Профиль]  [ЛС] 

vasanton

Пол:

Стаж: 2 года 6 месяцев

Сообщений: 5

Репутация: 3 [+] [-]

Откуда: Эстония

Пост 28-Авг-2015 13:28 (спустя 1 час 20 минут)

[Цитировать] 

Спасибо, и ещё, в этом сезоне 8 серий, а не 13. На всякий случай...
[Торрент-статистика]
[Профиль]  [ЛС] 

ArtZak

Пол:

Стаж: 6 лет 2 месяца

Сообщений: 2996

Репутация: 1363 [+] [-]

Откуда: Россия

Пост 28-Авг-2015 13:37 (спустя 9 минут)

[Цитировать] 

vasanton, ага вижу - сейчас исправлю ) Спасибо!
[Торрент-статистика]
[Профиль]  [ЛС] 

NeliyZar

Пол:

Стаж: 6 лет 3 месяца

Сообщений: 3378

Репутация: 687 [+] [-]

Откуда: Донбасс

Пост 28-Авг-2015 16:56 (спустя 3 часа)

[Цитировать] 

vasanton, обнулила Вам скачанное, в компенсацию. Будем искать ошибку в движке.

_________________
Спорить с женщиной не так тяжело, когда понимаешь, что это бесполезно... (Михаил Мамчич)
Исправили раздачу? Отпишитесь модератору в ЛС с ссылкой на релиз.
[Торрент-статистика]
[Профиль]  [ЛС] 
Показать сообщения:    
Ответить на тему

Текущее время: Сегодня 16:17

Часовой пояс: GMT + 4



Вы не можете начинать темы
Вы не можете отвечать на сообщения
Вы не можете редактировать свои сообщения
Вы не можете удалять свои сообщения
Вы не можете голосовать в опросах
Вы не можете прикреплять файлы к сообщениям
Вы не можете скачивать файлы