Убийство / The Killing / Сезон: 2 / Серии: 1-13 (13) (Эдвард Бьянчи, Агнешка Холланд) [2012 г, Драма, WEB-DL 720p] MVO (DD 5.1 Lostfilm)

Ответить на тему
 
Автор
Сообщение

awk05 ®

Пол:

Стаж: 5 лет 7 месяцев

Сообщений: 1352

Репутация: 275 [+] [-]

Откуда: Западная Украина Ривне

Пост 25-Дек-2013 23:28

[Цитировать] 

--Убийство / The Killing-- Год выпуска: 2012
Страна: США
Жанр: Драма
Сезон/Серия: Сезон: 2 /Серия 1-13 из 13
Продолжительность: 13 х ~ 00:44:00
Озвучание: Профессиональное (многоголосое, закадровое) Студия "Lostfilm"
Субтитры: нет--Режиссёр: Эдвард Бьянчи, Агнешка Холланд--В ролях: Мирей Инос, Билли Кэмпбелл, Мишель Форбс, Джоел Киннаман, Брент Секстон, и др.--Описание: Сериал рассказывает об одном убийстве с трех точек зрения – детективов, приставленных к этому делу, семьи погибшей и подозреваемых. Сюжет также затрагивает местных политиков и их связь с этим делом. Постепенно становится ясно, что здесь нет случайностей, у каждого свой секрет. И хотя персонажи думают, что они продолжают жить дальше, их прошлое еще не оставило их в покое.--Качество видео: WEB-DL 720p
Формат видео: MKV
Видео кодек: AVC (High@L4.1)
Аудио кодек: AC-3
Видео: AVC, 1280:720 (16:9), 23.976 fps, ~3 978 kbps, ~0.180 bit/pixel
Аудио 1: AC-3, 48.0 KHz, 6 ch, 384 Kbps, CBR, 16 бит [Русский]
Аудио 2: AC-3, 48.0 KHz, 6 ch, 384 Kbps, CBR, 16 бит [Английский] -- --

Скриншоты

-

MediaInfo

Код:
Общее
Уникальный идентификатор : 228037901021411275393174748130969949543 (0xAB8E80906425AC8FB5FDAC7FB1049567)
Полное имя : C:\Documents and Settings\Admin\Мои документы\Мои видеозаписи\фильмы\Моё\Констракшн\Убийство\The Killing S02 WEB-DL 720p (DD 5.1 Lostfilm)\The Killing S02E05 WEB-DL 720p (DD 5.1 Lostfilm).mkv
Формат : Matroska
Размер файла : 1,51 Гбайт
Продолжительность : 43 м.
Общий поток : 4968 Кбит/сек
Дата кодирования : UTC 2012-04-27 13:31:49
Программа кодирования : mkvmerge v4.0.0 ('The Stars were mine') сборка от Jun 6 2010 16:18:42
Библиотека кодирования : libebml v1.0.0 + libmatroska v1.0.0
Видео
Идентификатор : 1
Формат : AVC
Формат/Информация : Advanced Video Codec
Профиль формата : High@L3.1
Параметр CABAC формата : Нет
Параметр ReFrames формата : 2 кадры
Параметры GOP формата : M=2, N=32
Идентификатор кодека : V_MPEG4/ISO/AVC
Продолжительность : 43 м.
Битрейт : 4101 Кбит/сек
Ширина : 1280 пикс.
Высота : 720 пикс.
Соотношение сторон : 16:9
Частота кадров : 23,976 кадр/сек
Цветовое пространство : YUV
Подвыборка цветности : 4:2:0
Битовая глубина : 8 бит
Тип развёртки : Прогрессивная
Бит/(Пиксели*Кадры) : 0.186
Размер потока : 1,24 Гбайт (83%)
Язык : English
Основные цвета : BT.709-5, BT.1361, IEC 61966-2-4, SMPTE RP177
Характеристики трансфера : BT.709-5, BT.1361
Коэффициенты матрицы : BT.709-5, BT.1361, IEC 61966-2-4 709, SMPTE RP177
Аудио #1
Идентификатор : 2
Формат : AC-3
Формат/Информация : Audio Coding 3
Расширение режима : CM (complete main)
Идентификатор кодека : A_AC3
Продолжительность : 43 м.
Вид битрейта : Постоянный
Битрейт : 384 Кбит/сек
Канал(ы) : 6 канала(ов)
Расположение каналов : Front: L C R, Side: L R, LFE
Частота : 48,0 КГц
Битовая глубина : 16 бит
Метод сжатия : С потерями
Размер потока : 119 Мбайт (8%)
Язык : Russian
Аудио #2
Идентификатор : 3
Формат : AC-3
Формат/Информация : Audio Coding 3
Расширение режима : CM (complete main)
Идентификатор кодека : A_AC3
Продолжительность : 43 м.
Вид битрейта : Постоянный
Битрейт : 384 Кбит/сек
Канал(ы) : 6 канала(ов)
Расположение каналов : Front: L C R, Side: L R, LFE
Частота : 48,0 КГц
Битовая глубина : 16 бит
Метод сжатия : С потерями
Размер потока : 119 Мбайт (8%)
Язык : English
«СЕЗОН 1» «СЕЗОН 2» «СЕЗОН 3»

_________________
[Торрент-статистика]
[Профиль]  [ЛС] 

JaneEM

Стаж: 2 года 6 месяцев

Сообщений: 1

Репутация: 0 [+] [-]

Пост 19-Июл-2015 17:42 (спустя 1 год 6 месяцев)

[Цитировать] 

Дайте скорости господа! 2 сезон напрочь не скачивается. Пишет "Подключение к пирам" и все(
[Торрент-статистика]
[Профиль]  [ЛС] 
Показать сообщения:    
Ответить на тему

Текущее время: Сегодня 16:29

Часовой пояс: GMT + 4



Вы не можете начинать темы
Вы не можете отвечать на сообщения
Вы не можете редактировать свои сообщения
Вы не можете удалять свои сообщения
Вы не можете голосовать в опросах
Вы не можете прикреплять файлы к сообщениям
Вы не можете скачивать файлы