Скорпион / Scorpion / Сезон:1 / Серия 1-10 из 13 (Гэри Фледер, Дуайт Х. Литтл, Бобби Рот)[2014 г., боевик, драма, криминал, WEB-DL 720p] MVO BaibaKo (Обновляемая)

Ответить на тему
 
Автор
Сообщение

awk05 ®

Пол:

Стаж: 6 лет 1 месяц

Сообщений: 1351

Репутация: 275 [+] [-]

Откуда: Западная Украина Ривне

Пост 24-Сен-2014 16:15

[Цитировать] 

--Скорпион / Scorpion«This team is pure genius»-- Год выпуска 2014
Страна: США
Жанр: боевик, драма, криминал
Сезон/Серия: Сезон:1 / Серия 1-10 из 13
Продолжительность: 13 х 00:42:00
Перевод: Профессиональный (многоголосый, закадровый) + Original
Озвучка / Автор перевода: BaibaKo
Субтитры: отсутствуют--Режиссеры: Гэри Фледер, Дуайт Х. Литтл, Бобби Рот--В ролях: Элиес Габел, Кэтрин МакФи, Эри Стидэм, Эдди Кэй Томас, Джейдин Вонг, Эмили Робинсон, Роберт Патрик, Рис Риос и др.--Описание: Основной персонаж сериала Уолтер О`Брайен очень умный и способный человек, он безумно мозговитый, единицы в мире обладают таким умом как у него. Однако, от того, что он благоразумен и остроумен, его жизнь не становится легче и успешнее. Быть одним из наиболее умных в мире - это не обозначает испытывать полное счастье. Переизбыток умственных навыков Уолтеру добавляют только лишние проблемы. Еще в раннем возрасте, когда он хотел шалить вместе со своими сверстниками, его шутки были намного необычней, чем у всей остальной детворы. В период подросткового возраста все курили в подворотнях, слушали «запрещенную музыку» и всячески натыкались на неприятности, Уолтер искал решения на вопросы, которые появлялись у него в голове, он разгадал систему защиты НАСА и Пентагона. В то время, когда он был способен взломать такие сложные системы, у него было недостаточно мозгов на то, чтоб не выдать себя. Как только Уолтер вырос, он решил организовать собственное предприятие, в котором станут действовать лишь пятеро самых умных людей. АНБ разузнали об этой организации и предложили Уолтеру сотрудничать с ними. Теперь едва только в мире возникает фатальная проблема, его бригада берется за ее решение.
Сюжет основан на реальных событиях.--Качество видео: WEB-DL 720p
Формат видео: MKV
Видео кодек: AVC (High@L3.1)
Аудио кодек: AC-3
Видео: AVC, 1280x720 (16:9), 23.976 fps, 3 962 Kbps (0.179 bit/pixel)
Аудио 1: AC-3, 48.0 KHz, 6 ch, 384 Kbps, CBR, 16 bits [Русский]
Аудио 2: AC-3, 48.0 KHz, 6 ch, 384 Kbps, CBR, 16 bits [Английский] -- --

Список серий

01. Пилот
02. Единственная неудача
03. Циклон
04. Ловкость рук
05. Плутоний навсегда
06. Истинное я
07. День отца
08. Рискованный бизнес
10. Преступный элемент

Кадры из фильма

Тех. данные (MI)

Код:
Общее
Уникальный идентификатор                 : 243768362156387136470314135996078699442 (0xB764142D5BE09A0E94EF3FC0030733B2)
Полное имя                               : E:\Сериалы новые\Scorpion\Scorpion.s01e01.HD720p.WEB-DL.Rus.Eng.BaibaKo.tv.mkv
Формат                                   : Matroska
Версия формата                           : Version 4 / Version 2
Размер файла                             : 1,40 Гбайт
Продолжительность                        : 41 м.
Общий поток                              : 4826 Кбит/сек
Дата кодирования                         : UTC 2014-09-24 01:17:19
Программа кодирования                    : mkvmerge v6.7.0 ('Back to the Ground') 64bit built on Jan  8 2014 15:10:52
Библиотека кодирования                   : libebml v1.3.0 + libmatroska v1.4.1
Видео
Идентификатор                            : 1
Формат                                   : AVC
Формат/Информация                        : Advanced Video Codec
Профиль формата                          : High@L3.1
Параметр CABAC формата                   : Нет
Параметр ReFrames формата                : 2 кадра
Идентификатор кодека                     : V_MPEG4/ISO/AVC
Продолжительность                        : 41 м.
Битрейт                                  : 3962 Кбит/сек
Ширина                                   : 1280 пикселей
Высота                                   : 720 пикселей
Соотношение сторон                       : 16:9
Режим частоты кадров                     : Постоянный
Частота кадров                           : 23,976 кадра/сек
Цветовое пространство                    : YUV
Субдискретизация насыщенности            : 4:2:0
Битовая глубина                          : 8 бит
Тип развёртки                            : Прогрессивная
Бит/(Пиксели*Кадры)                      : 0.179
Размер потока                            : 1,15 Гбайт (82%)
Язык                                     : English
Default                                  : Да
Forced                                   : Нет
Основные цвета                           : BT.709
Характеристики трансфера                 : BT.709
Коэффициенты матрицы                     : BT.709
Аудио #1
Идентификатор                            : 2
Формат                                   : AC-3
Формат/Информация                        : Audio Coding 3
Расширение режима                        : CM (complete main)
Параметр Endianness формата              : Big
Идентификатор кодека                     : A_AC3
Продолжительность                        : 41 м.
Вид битрейта                             : Постоянный
Битрейт                                  : 384 Кбит/сек
Каналы                                   : 6 каналов
Расположение каналов                     : Front: L C R, Side: L R, LFE
Частота                                  : 48,0 КГц
Битовая глубина                          : 16 бит
Метод сжатия                             : С потерями
Размер потока                            : 114 Мбайт (8%)
Язык                                     : Russian
Default                                  : Да
Forced                                   : Нет
Аудио #2
Идентификатор                            : 3
Формат                                   : AC-3
Формат/Информация                        : Audio Coding 3
Расширение режима                        : CM (complete main)
Параметр Endianness формата              : Big
Идентификатор кодека                     : A_AC3
Продолжительность                        : 41 м.
Вид битрейта                             : Постоянный
Битрейт                                  : 384 Кбит/сек
Каналы                                   : 6 каналов
Расположение каналов                     : Front: L C R, Side: L R, LFE
Частота                                  : 48,0 КГц
Битовая глубина                          : 16 бит
Метод сжатия                             : С потерями
Размер потока                            : 114 Мбайт (8%)
Язык                                     : English
Default                                  : Нет
Forced                                   : Нет

_________________
[Торрент-статистика]
[Профиль]  [ЛС] 

krumholzmax

Стаж: 6 лет 1 месяц

Сообщений: 8

Репутация: 0 [+] [-]

Пост 14-Фев-2015 13:35 (спустя 4 месяца 19 дней)

[Цитировать] 

Уже 16я вышла

_________________
MaxK
[Торрент-статистика]
[Профиль]  [ЛС] 
Показать сообщения:    
Ответить на тему

Текущее время: Сегодня 07:20

Часовой пояс: GMT + 4



Вы не можете начинать темы
Вы не можете отвечать на сообщения
Вы не можете редактировать свои сообщения
Вы не можете удалять свои сообщения
Вы не можете голосовать в опросах
Вы не можете прикреплять файлы к сообщениям
Вы не можете скачивать файлы