Мастера секса / Masters of Sex / Сезон: 2 / Серии: 1-12 (12) (Майкл Аптед / Michael Apted, Майкл Диннер / Michael Dinner, Дженнифер Гетцингер / Jennifer Getzinger) [2013, США, драма, WEB-DL 720p] MVO Amedia + Original (Обновляемая)

Ответить на тему
 
Автор
Сообщение

awk05 ®

Пол:

Стаж: 5 лет 10 месяцев

Сообщений: 1352

Репутация: 275 [+] [-]

Откуда: Западная Украина Ривне

Пост 16-Июл-2014 17:00

[Цитировать] 

--Мастера секса / Masters of Sex«Arousing America's Curiosity»-- Страна: США
Жанр: драма
Год выпуска: 2014
Сезон/Серия: Сезон:2 /Серия 1-12 из 12
Продолжительность: 12 х ~01:00:00
Перевод: Профессиональный многоголосый закадровый + Original
Озвучка / Автор перевода: студия Кипарис по заказу Amedia
Субтитры: английские--Режиссер: Майкл Аптед / Michael Apted, Майкл Диннер / Michael Dinner, Дженнифер Гетцингер / Jennifer Getzinger--В ролях: Майкл Шин (Dr. William Masters), Лиззи Каплан (Virginia Johnson), Кэйтлин Фицджералд (Libby Masters), Тедди Сирс (Dr. Austin Langham), Николас Д’Агосто (Dr. Ethan Haas), Хелен Йорк ( Martin), Бо Бриджес (Barton Scully), Джулианна Николсон (Dr. Lillian DePaul), Коул Сэнд (Henry Johnson), Роуз МакИвер (Vivian Scully), Эллисон Дженни (Margaret Scully), Кайла Мэдисон (Tessa Johnson)--Описание: Перед вами экранизация знаменитого романа Томаса Майера, носящего название “Мастера секса: Жизнь и время Уильяма Мастерса и Вирджинии Джонсон, пары, которая учила Америку любить”. Это рассказ о жизни мужчины и женщины, которые заняты тем, что на собственном опыте исследуют все глубины человеческой страсти.
Уильям и Вирджиния были первыми сексологами, взявшимися за исследование человеческой сексуальности. Они задались целью выяснить всё обо всех вещах, которые могут доставить человеку удовольствие.
Однако, их интересуют не только физические ощущения, которые испытывает человеческое тело во время наслаждения, но и то, как реагирует на это мозг и какие процессы проходят в нем на высшей точке экстаза. Все события сериала развиваются в Соединенных Штатах Америки в далекие 60-е годы 20-го века.--Качество видео: WEB-DL 720p
Формат видео: MKV
Видео кодек: AVC (High@L3.1)
Аудио кодек: AC-3
Видео: AVC, 1280x718 (16:9), 23.976 fps, ~4187 Kbps, ~0.190 bit/pixel
Аудио 1: AC-3, 48.0 KHz, 6 ch, 384 Kbps, CBR, 16 бит [RUS]
Аудио 2: AC-3, 48.0 KHz, 6 ch, 384 Kbps, CBR, 16 бит [ENG] -- --В сериале в изобилии присутствуют откровенные сцены.--

Список серий

01. Parallax / Параллакс
02. Kyrie Eleison / Господи помилуй
03. Fight / Бой
04. Dirty Jobs / Грязная работа
05. Giants / Гиганты
06. Blackbird / Дрозд
07. Asterion / Астерион
08. Mirror, Mirror / Свет мой, зеркальце
09. Story of My Life / История моей жизни
10. Below the Belt / Ниже пояса
11. One for the Money, Two for the Show / Деньги — это раз. Шоу — это два
12. The Revolution Will Not Be Televised / Революцию не покажут в эфире

Тех. данные (MI)

Общее
Masters of Sex - Мастера секса. Сезон 2. Amedia. 720p\Masters.of.Sex.S02E01.WEB-DL.720p.Rus.Eng.Amedia.mkv
Формат : Matroska
Версия формата : Version 4 / Version 2
Размер файла : 2,10 Гбайт
Продолжительность : 59 м.
Общий поток : 5056 Кбит/сек
Дата кодирования : UTC 2014-07-16 07:21:39
Программа кодирования : mkvmerge v6.9.1 ('Blue Panther') 64bit built on Apr 18 2014 18:23:38
Библиотека кодирования : libebml v1.3.0 + libmatroska v1.4.1
Видео
Идентификатор : 1
Формат : AVC
Формат/Информация : Advanced Video Codec
Профиль формата : High@L3.1
Параметр CABAC формата : Нет
Параметр ReFrames формата : 2 кадра
Идентификатор кодека : V_MPEG4/ISO/AVC
Продолжительность : 59 м.
Битрейт : 4187 Кбит/сек
Ширина : 1280 пикселей
Высота : 718 пикселей
Соотношение сторон : 16:9
Режим частоты кадров : Постоянный
Частота кадров : 23,976 кадра/сек
Цветовое пространство : YUV
Субдискретизация насыщенности : 4:2:0
Битовая глубина : 8 бит
Тип развёртки : Прогрессивная
Бит/(Пиксели*Кадры) : 0.190
Размер потока : 1,74 Гбайт (83%)
Язык : English
Default : Да
Forced : Нет
Основные цвета : BT.709
Характеристики трансфера : BT.709
Коэффициенты матрицы : BT.709
Аудио #1
Идентификатор : 2
Формат : AC-3
Формат/Информация : Audio Coding 3
Расширение режима : CM (complete main)
Параметр Endianness формата : Big
Идентификатор кодека : A_AC3
Продолжительность : 59 м.
Вид битрейта : Постоянный
Битрейт : 384 Кбит/сек
Каналы : 6 каналов
Расположение каналов : Front: L C R, Side: L R, LFE
Частота : 48,0 КГц
Битовая глубина : 16 бит
Метод сжатия : С потерями
Размер потока : 164 Мбайт (8%)
Язык : Russian
Default : Да
Forced : Нет
Аудио #2
Идентификатор : 3
Формат : AC-3
Формат/Информация : Audio Coding 3
Расширение режима : CM (complete main)
Параметр Endianness формата : Big
Идентификатор кодека : A_AC3
Продолжительность : 59 м.
Вид битрейта : Постоянный
Битрейт : 384 Кбит/сек
Каналы : 6 каналов
Расположение каналов : Front: L C R, Side: L R, LFE
Частота : 48,0 КГц
Битовая глубина : 16 бит
Метод сжатия : С потерями
Размер потока : 164 Мбайт (8%)
Язык : English
Default : Нет
Forced : Нет
Текст
Идентификатор : 4
Формат : UTF-8
Идентификатор кодека : S_TEXT/UTF8
Идентификатор кодека/Информация : UTF-8 Plain Text
Язык : English
Default : Нет
Forced : Нет

Скриншоты


_________________


Последний раз редактировалось: awk05 (2014-10-26 23:54), всего редактировалось 1 раз
[Торрент-статистика]
[Профиль]  [ЛС] 

alex_Sh

Стаж: 6 лет

Сообщений: 1

Репутация: 0 [+] [-]

Пост 26-Окт-2014 22:00 (спустя 3 месяца 10 дней)

[Цитировать] 

Непонял, какой тут сериал???
./Z Nation.720
Z.Nation.s01e01.HD720p.WEB-DL.Rus.Eng.BaibaKo.tv.mkv 1.48 GB (1599281875)
Z.Nation.s01e02.HD720p.WEB-DL.Rus.Eng.BaibaKo.tv.mkv 1.42 GB (1527600113)
Z.Nation.s01e03.HD720p.WEB-DL.Rus.Eng.BaibaKo.tv.mkv 1.44 GB (1550908472)
Z.Nation.s01e04.HD720p.WEB-DL.Rus.Eng.BaibaKo.tv.mkv 1.41 GB (1521854057)
Z.Nation.s01e05.HD720p.WEB-DL.Rus.Eng.BaibaKo.tv.mkv 1.36 GB (1469648287)
Z.Nation.s01e06.HD720p.WEB-DL.Rus.Eng.BaibaKo.tv.mkv 1.49 GB (1603264180)
Z.Nation.s01e07.HD720p.WEB-DL.Rus.Eng.BaibaKo.tv.mkv 1.48 GB (1596171493)
[Торрент-статистика]
[Профиль]  [ЛС] 
Показать сообщения:    
Ответить на тему

Текущее время: Сегодня 18:26

Часовой пояс: GMT + 4



Вы не можете начинать темы
Вы не можете отвечать на сообщения
Вы не можете редактировать свои сообщения
Вы не можете удалять свои сообщения
Вы не можете голосовать в опросах
Вы не можете прикреплять файлы к сообщениям
Вы не можете скачивать файлы