Верь / Believe / Сезон: 1 / Серии: 1-12 из 12 (Альфонсо Куарон, Марк Фридман) [2014, Фантастика, Драма, WEB-DL 720p DD 5.1] MVO (LostFilm) + Original + Eng Subs

Ответить на тему
 
Автор
Сообщение

awk05 ®

Пол:

Стаж: 5 лет 7 месяцев

Сообщений: 1352

Репутация: 275 [+] [-]

Откуда: Западная Украина Ривне

Пост 14-Мар-2014 17:58

[Цитировать] 

-- --Верь / Believe-- Страна: США
Год выпуска 2014
Жанр: Фэнтези, драма
Сезон/Серия: Сезон:1 /Серия 1-12 из 12
Продолжительность: 12 х ~ 00:44:00
Перевод: профессиональный (многоголосый, закадровый) Студия "LostFilm"
Субтитры: Английские--Режиссёр: Альфонсо Куарон, Роксанн Доусон--В ролях: Джонни Секвойя, Джэйк МакЛафлин, Делрой Линдо, Кайл МакЛоклен, Сиенна Гиллори, Джейми Чунг, Ариан Моайед, Юрий Хенли-Кон, Кэти МакКлеллан, Роб Морган--Описание: Бо девочка 10-ти лет, у которой с двух лет проявились необычные способности, выросла в небольшой группе людей известных как «истинно верующие». Обладая телекинезом, левитацией, умением прогнозирования будущего и не только, она становится целью для плохих людей, стремящихся использовать её дар, из-за чего «верующие» и охраняли девочку все эти годы. Но к 10-ти годам сила Бо становится сильнее и угроза растет, тогда они выбирают того кто будет её защищать, и этим человеком становится несправедливо заключенный по имени Тейт.--Качество видео:WEB-DL 720p
Формат видео: MKV
Видео кодек: AVC (High@L3.1)
Аудио кодек: AC-3
Видео: 1280x718 (16:9), 23,976 кадра/сек, 4125 Кбит/сек, 0.187 Бит/(Пиксели*Кадры)
Аудио 1: 6 каналов Front: L C R, Side: L R, LFE, 48,0 КГц, 384 Кбит/сек, 16 бит CBR [RUS]
Аудио 2: 6 каналов Front: L C R, Side: L R, LFE, 48,0 КГц, 384 Кбит/сек, 16 бит CBR [ENG]---- --

MediaInfo

Общее
Уникальный идентификатор : 171350413669773320824415404353379975466 (0x80E8E3A70021C8438EFA8C9EB83D412A)
Полное имя : E:\Сериалы новые\Believe (1 season, LostFilm) WEB-DL 720p\Believe.S01E01.LostFilm.WEB-DL.720p[TV.MEKC.INFO]-Tyance.mkv
Формат : Matroska
Версия формата : Version 4 / Version 2
Размер файла : 1,50 Гбайт
Продолжительность : 43 м.
Общий поток : 4992 Кбит/сек
Название фильма : Believe [1 season] - TV.MEKC.INFO
Дата кодирования : UTC 2014-03-16 09:06:23
Программа кодирования : mkvmerge v6.7.0 ('Back to the Ground') 64bit built on Jan 8 2014 15:10:52
Библиотека кодирования : libebml v1.3.0 + libmatroska v1.4.1
Видео
Идентификатор : 1
Формат : AVC
Формат/Информация : Advanced Video Codec
Профиль формата : High@L3.1
Параметр CABAC формата : Нет
Параметр ReFrames формата : 2 кадра
Идентификатор кодека : V_MPEG4/ISO/AVC
Продолжительность : 43 м.
Битрейт : 4125 Кбит/сек
Ширина : 1280 пикселей
Высота : 718 пикселей
Соотношение сторон : 16:9
Режим частоты кадров : Постоянный
Частота кадров : 23,976 кадра/сек
Цветовое пространство : YUV
Субдискретизация насыщенности : 4:2:0
Битовая глубина : 8 бит
Тип развёртки : Прогрессивная
Бит/(Пиксели*Кадры) : 0.187
Размер потока : 1,24 Гбайт (83%)
Заголовок : 1. Pilot - TV.MEKC.INFO
Язык : English
Default : Да
Forced : Нет
Основные цвета : BT.709
Характеристики трансфера : BT.709
Коэффициенты матрицы : BT.709
Аудио #1
Идентификатор : 2
Формат : AC-3
Формат/Информация : Audio Coding 3
Расширение режима : CM (complete main)
Параметр Endianness формата : Big
Идентификатор кодека : A_AC3
Продолжительность : 43 м.
Вид битрейта : Постоянный
Битрейт : 384 Кбит/сек
Каналы : 6 каналов
Расположение каналов : Front: L C R, Side: L R, LFE
Частота : 48,0 КГц
Битовая глубина : 16 бит
Метод сжатия : С потерями
Размер потока : 118 Мбайт (8%)
Заголовок : LostFilm
Язык : Russian
Default : Да
Forced : Нет
Аудио #2
Идентификатор : 3
Формат : AC-3
Формат/Информация : Audio Coding 3
Расширение режима : CM (complete main)
Параметр Endianness формата : Big
Идентификатор кодека : A_AC3
Продолжительность : 43 м.
Вид битрейта : Постоянный
Битрейт : 384 Кбит/сек
Каналы : 6 каналов
Расположение каналов : Front: L C R, Side: L R, LFE
Частота : 48,0 КГц
Битовая глубина : 16 бит
Метод сжатия : С потерями
Размер потока : 118 Мбайт (8%)
Заголовок : English
Язык : English
Default : Нет
Forced : Нет
Текст
Идентификатор : 4
Формат : UTF-8
Идентификатор кодека : S_TEXT/UTF8
Идентификатор кодека/Информация : UTF-8 Plain Text
Язык : English
Default : Нет
Forced : Нет

Скриншоты

Список серий

01. Pilot / Пилот
02. Beginner's Luck / Новичкам везёт
03. Origin / Начало
04. Defection / Отступничество
05. White Noise / Белый шум
06. Sinking / Из глубины
07. Bang and Blame / Под ударом
08. Together / Вместе
09. Prodigy / Талант
10. Collapse / Обвал
11. Revelation / Откровение
12. Second Chance / Второй шанс

Раздача ведется путем добавления новых серий

Когда раздача ведётся путём добавления новых серий, при каждом добавлении создётся новый торрент. Чтобы начать докачку новой серии, пользователям необходимо сделать следующее:
(1) остановить скачивание,
(2) удалить старый торрент у себя из клиента (старые серии удалять не надо),
(3) скачать новый торрент и запустить его у себя в клиенте вместо старого, при этом указать клиенту путь в старую папку, куда и должно происходить скачивание новых серий.
Ваш клиент при этом должен произвести хеширование (проверку) старой папки (если не производит сам - помогите ему сделать это), и будет докачивать только те серии, которых у вас ещё нет. Старые серии при этом не удаляются, а продолжают раздаваться!
Eсли вы уже удалили старые серии, то предотвратить повторную закачку старых серий можно, отжав галочку в соответсвующих местах при запуске нового торрента. По возможности, желательно не удалять старые серии как можно дольше, чтобы релизёр не столько продолжал раздавать старые серии, а смог сконцентрироваться на новых.

_________________


Последний раз редактировалось: awk05 (2014-05-17 03:47), всего редактировалось 1 раз
[Торрент-статистика]
[Профиль]  [ЛС] 

TYAnCE

Пол:

Стаж: 6 лет

Сообщений: 269

Репутация: 65 [+] [-]

Откуда: Туапсе

Пост 15-Май-2014 12:42 (спустя 2 месяца)

[Цитировать] 

Привет!) Немного странноватая раздача... По описанию и медиа инфо - она моя, а вот по списку файлов - лостовская ab Эт как?)

_________________
[Торрент-статистика]
[Профиль]  [ЛС] 

awk05 ®

Пол:

Стаж: 5 лет 7 месяцев

Сообщений: 1352

Репутация: 275 [+] [-]

Откуда: Западная Украина Ривне

Пост 16-Май-2014 22:24 (спустя 1 день 9 часов)

[Цитировать] 

TYAnCE, Привет, раздача не с рутрекера создавался новый торрен файл

_________________
[Торрент-статистика]
[Профиль]  [ЛС] 

sergei78

Пол:

Стаж: 4 года 3 месяца

Сообщений: 91

Репутация: 120 [+] [-]

Откуда: Бывший СССР: "Связист Кстово 100/40"

Пост 28-Май-2014 17:44 (спустя 11 дней)

[Цитировать] 

сериал так себе.
[Торрент-статистика]
[Профиль]  [ЛС] 

TYAnCE

Пол:

Стаж: 6 лет

Сообщений: 269

Репутация: 65 [+] [-]

Откуда: Туапсе

Пост 18-Окт-2014 01:53 (спустя 4 месяца 20 дней)

[Цитировать] 

45921TYAnCE, Привет, раздача не с рутрекера создавался новый торрен файл
А, так ты просто файла переименовал) Ясно) Даж постер мой и оформление)
Ты бы работу со звуком то указал ad Я все же старалась)

_________________
[Торрент-статистика]
[Профиль]  [ЛС] 
Показать сообщения:    
Ответить на тему

Текущее время: Сегодня 16:26

Часовой пояс: GMT + 4



Вы не можете начинать темы
Вы не можете отвечать на сообщения
Вы не можете редактировать свои сообщения
Вы не можете удалять свои сообщения
Вы не можете голосовать в опросах
Вы не можете прикреплять файлы к сообщениям
Вы не можете скачивать файлы