Числа / Numb3rs / Сезон:1-6 / Серия 1-118 из 118 (Дэннис Смит, Алекс Закржевский, Джон Беринг) [2005-2010, триллер, драма, криминал, детектив, WEB-DL 720p] ТВ3 / Universal

Ответить на тему
 
Автор
Сообщение

awk05 ®

Пол:

Стаж: 6 лет 5 месяцев

Сообщений: 1347

Репутация: 275 [+] [-]

Откуда: Западная Украина Ривне

Пост 10-Сен-2014 17:03

[Цитировать] 

--Числа / Numb3rs «Как раскрыть преступление в огромном городе? Помогут числа.»-- Год выпуска 2005-2010
Страна: США | CBS Paramount Network Television
Жанр: Триллер, Криминал, Детектив
Сезон/Серия: Сезон:1-6 /Серия 1-118 из 118
Продолжительность: 118 х ~00:45:00
Перевод: Профессиональный (Многоголосый, закадровый) + Original
Озвучка / Автор перевода: [ТВ3] (1-2 сезоны) [Universal] (3-6 сезоны)
Субтитры: отсутствуют--Режиссёр: Дэннис Смит, Алекс Закржевский, Джон Беринг--В ролях: Дэвид Крамхолц, Роб Морроу, Джадд Хёрш, Алими Баллард, Нави Рават, Питер МакНикол, Дилан Бруно, Дайан Фарр, Айа Сумика, Софина Браун--Описание фильма: Каждый день мы используем числа, чтобы прогнозировать погоду, определять время, считать деньги… С помощью математики мы можем анализировать преступления, выявлять закономерности, предсказывать поведение… Используя числа, мы можем решить величайшие загадки. Этот сериал об агенте ФБР, которому брат-математик помогает раскрыть серию преступлений в Лос-Анджелесе.--Качество видео: WEB-DL 720p
Формат видео: MKV
Видео кодек: AVC (High@L3.1)
Аудио кодек: AC-3
Видео: AVC, 1280x720 (1.77:1), 23.976 fps, ~4 027 kbps avg, 0.185 bit/pixel.
Аудио 1: AC-3, 48.0 KHz, 2 ch, 192 Kbps, CBR, 16 bits [Русский]
Аудио 2: AC-3, 48.0 KHz, 6 ch, 384 Kbps, CBR, 16 bits [Английский] -- --

Кадры из фильма



Тех. данные (MI)

Код:
Формат : Matroska
Версия формата : Version 2
Размер файла : 1,44 Гбайт
Продолжительность : 44 м.
Общий поток : 4756 Кбит/сек
Дата кодирования : UTC 2011-11-15 17:26:58
Программа кодирования : mkvmerge v5.0.1 ('Es ist Sommer') built on Oct 9 2011 11:55:43
Библиотека кодирования : libebml v1.2.2 + libmatroska v1.3.0
Видео
Идентификатор : 1
Формат : AVC
Формат/Информация : Advanced Video Codec
Профиль формата : High@L3.1
Параметр CABAC формата : Нет
Параметр ReFrames формата : 2 кадра
Идентификатор кодека : V_MPEG4/ISO/AVC
Продолжительность : 44 м.
Битрейт : 4027 Кбит/сек
Ширина : 1280 пикселей
Высота : 720 пикселей
Соотношение сторон : 16:9
Частота кадров : 23,976 кадра/сек
Цветовое пространство : YUV
Субдискретизация насыщенности : 4:2:0
Битовая глубина : 8 бит
Тип развёртки : Прогрессивная
Бит/(Пиксели*Кадры) : 0.185
Размер потока : 1,23 Гбайт (86%)
Язык : English
Default : Да
Forced : Нет
Основные цвета : BT.709-5, BT.1361, IEC 61966-2-4, SMPTE RP177
Характеристики трансфера : BT.709-5, BT.1361
Коэффициенты матрицы : BT.709-5, BT.1361, IEC 61966-2-4 709, SMPTE RP177
Аудио #1
Идентификатор : 2
Формат : AC-3
Формат/Информация : Audio Coding 3
Расширение режима : CM (complete main)
Идентификатор кодека : A_AC3
Продолжительность : 44 м.
Вид битрейта : Постоянный
Битрейт : 192 Кбит/сек
Каналы : 2 канала
Расположение каналов : Front: L R
Частота : 48,0 КГц
Битовая глубина : 16 бит
Метод сжатия : С потерями
Размер потока : 60,7 Мбайт (4%)
Заголовок : rus
Язык : Russian
Default : Да
Forced : Нет
Аудио #2
Идентификатор : 3
Формат : AC-3
Формат/Информация : Audio Coding 3
Расширение режима : CM (complete main)
Идентификатор кодека : A_AC3
Продолжительность : 44 м.
Вид битрейта : Постоянный
Битрейт : 384 Кбит/сек
Каналы : 6 каналов
Расположение каналов : Front: L C R, Side: L R, LFE
Частота : 48,0 КГц
Битовая глубина : 16 бит
Метод сжатия : С потерями
Размер потока : 121 Мбайт (8%)
Заголовок : eng
Язык : English
Default : Нет
Forced : Нет

_________________
[Торрент-статистика]
[Профиль]  [ЛС] 

arabella.kiev

Стаж: 4 года 10 месяцев

Сообщений: 24

Репутация: 43 [+] [-]

Пост 27-Сен-2014 06:42 (спустя 16 дней)

[Цитировать] 

спасибо ребята...станьте на раздачу...пусть хоть пару человек скачает...ожидают несколько
[Торрент-статистика]
[Профиль]  [ЛС] 
Показать сообщения:    
Ответить на тему

Текущее время: Сегодня 11:25

Часовой пояс: GMT + 4



Вы не можете начинать темы
Вы не можете отвечать на сообщения
Вы не можете редактировать свои сообщения
Вы не можете удалять свои сообщения
Вы не можете голосовать в опросах
Вы не можете прикреплять файлы к сообщениям
Вы не можете скачивать файлы