Joseph Haydn - Septem Verba Christi in Cruce / Йозеф Гайдн - Семь слов Христа на кресте (1993) (Классика) , FLAC (image + .cue), lossless

Ответить на тему
 
Автор
Сообщение

NIKUPER ®

Пол:

Стаж: 5 лет 1 месяц

Сообщений: 66

Репутация: 31 [+] [-]

Пост 29-Дек-2011 01:17

[Цитировать] 

Joseph Haydn - Septem Verba Christi in Cruce /
Йозеф Гайдн - Семь слов Христа на кресте
Жанр: Классика
Год выпуска: 1993
Контейнер: FLAC (image + .cue)
Битрейт аудио: lossless
Продолжительность: 57:00
Трэклист:
01. Йозеф Гайдн - Maestoso ed Adagio – Интродукция [04:41]
02. Йозеф Гайдн - Largo - Соната I [05:16]
03. Йозеф Гайдн - Grave e cantabile – Соната II [07:21]
04. Йозеф Гайдн - Grave – Соната III [08:13]
05. Йозеф Гайдн - Largo – Соната IV [06:50]
06. Йозеф Гайдн - Adagio – Соната V [07:31]
07. Йозеф Гайдн - Lento – Соната VI [06:40]
08. Йозеф Гайдн - Largo – Соната VII / «Землетрясение» [09:30]

Отчёт ЕАС

Exact Audio Copy V0.99 prebeta 5 from 4. May 2009
Отчёт EAC об извлечении, выполненном 23. января 2010, 19:47
Йозеф Гайдн / Семь слов Христа на кресте
Дисковод: Optiarc DVD RW AD-7200S Adapter: 2 ID: 0
Режим чтения : Достоверность
Использование точного потока : Да
Отключение кэша аудио : Да
Использование указателей C2 : Нет
Коррекция смещения при чтении : 48
Способность читать области Lead-in и Lead-out : Нет
Заполнение пропущенных сэмплов тишиной : Да
Удаление блоков с тишиной в начале и конце : Нет
При вычислениях CRC использовались нулевые сэмплы : Да
Интерфейс : Встроенный Win32-интерфейс для Win NT/2000
Выходной формат : Внутренние WAV-операции
Формат сэмплов : 44.100 Гц; 16 бит; стерео
TOC извлечённого CD
Трек | Старт | Длительность | Начальный сектор | Конечный сектор
---------------------------------------------------------------------
1 | 0:00.25 | 4:42.00 | 25 | 21174
2 | 4:42.25 | 5:16.07 | 21175 | 44881
3 | 9:58.32 | 7:21.55 | 44882 | 78011
4 | 17:20.12 | 8:13.15 | 78012 | 115001
5 | 25:33.27 | 6:50.50 | 115002 | 145801
6 | 32:24.02 | 7:31.13 | 145802 | 179639
7 | 39:55.15 | 6:40.10 | 179640 | 209649
8 | 46:35.25 | 9:30.70 | 209650 | 252469
Характеристики диапазона извлечения и сообщения об ошибках
Выбранный диапазон
Имя файла E:\МОИ РАЗДАЧИ\Йозеф Гайдн - Семь слов Христа на кресте\Йозеф Гайдн - Семь слов Христа на кресте.wav
Пиковый уровень 79.7 %
Качество диапазона 99.9 %
CRC копии 9B4E6964
Копирование... OK
Ошибок не произошло
AccurateRip: сводка
Трек 1 нет в базе данных
Трек 2 нет в базе данных
Трек 3 нет в базе данных
Трек 4 нет в базе данных
Трек 5 нет в базе данных
Трек 6 нет в базе данных
Трек 7 нет в базе данных
Трек 8 нет в базе данных
Ни одного трека нет в базе AccurateRip
Конец отчёта

Евангельский текст

  • «И когда пришли на место, называемое Лобное, там распяли Его и злодеев, одного по правую, а другого по левую сторону. Иисус же говорил: Отче! прости им, ибо не знают, что делают» (Лк.23:33-34) (слова обращены к Богу Отцу)
  • «И сказал Иисусу: помяни меня, Господи, когда приидешь в Царствие Твое! И сказал ему Иисус: истинно говорю тебе, ныне же будешь со Мною в раю» (Лк.23:42-43) (слова обращены к благоразумному разбойнику)
  • «…говорит Матери Своей: Жено! се, сын Твой. Потом говорит ученику: се, Матерь твоя!» (Ин.19:26-27) (слова обращены к Богородице и Иоанну Богослову, любимому ученику Иисуса)
  • «около девятого часа возопил Иисус громким голосом: Или́, Или́! лама́ савахфани́? то есть: Боже Мой, Боже Мой! для чего Ты Меня оставил?» (Мф.27:46) (тоже у Марка — Мк.15:34; слова обращены к Богу Отцу)
  • «После того Иисус, зная, что уже все совершилось, да сбудется Писание, говорит: жажду» (Ин.19:28) (слова обращены к воинам, стоявшим у креста)
  • «Когда же Иисус вкусил уксуса, сказал: совершилось! И, преклонив главу, предал дух» (Ин.19:30) (слова обращены к народу)
  • «Иисус, возгласив громким голосом, сказал: Отче! в руки Твои предаю дух Мой. И, сие сказав, испустил дух» (Лк.23:46) (слова обращены к Богу Отцу)
- -

_________________


Последний раз редактировалось: NIKUPER (2012-02-14 23:37), всего редактировалось 3 раз(а)
[Торрент-статистика]
[Профиль]  [ЛС] 

schurij

Стаж: 5 лет

Сообщений: 1

Репутация: 0 [+] [-]

Пост 02-Янв-2012 03:23 (спустя 4 дня)

[Цитировать] 

Danke sehr! Ждёмс с нетерпением.
[Торрент-статистика]
[Профиль]  [ЛС] 
Показать сообщения:    
Ответить на тему

Текущее время: Сегодня 23:12

Часовой пояс: GMT + 4



Вы не можете начинать темы
Вы не можете отвечать на сообщения
Вы не можете редактировать свои сообщения
Вы не можете удалять свои сообщения
Вы не можете голосовать в опросах
Вы не можете прикреплять файлы к сообщениям
Вы не можете скачивать файлы