Убийство The Killing / Сезон 4, серии 1-6 из 6 (Эдвард Бьянчи, Агнешка Холланд, Фил Абрахам) [2014 г., Драма, Криминал, Детектив, WEB-DL 720 р] MVO LostFilm (Обновляемая)

Ответить на тему
 
Автор
Сообщение

awk05 ®

Пол:

Стаж: 6 лет 5 месяцев

Сообщений: 1347

Репутация: 275 [+] [-]

Откуда: Западная Украина Ривне

Пост 05-Авг-2014 02:16

[Цитировать] 

--Убийство / The Killing«Who Killed Rosie Larsen?»-- Год выпуска: 2014
Жанр: Драма, Криминал, Детектив
Сезон/Серия: Сезон:4 /Серия 1-6 из 6
Продолжительность: 6 х ~ 00:59:00 серия
Перевод: Многоголосый закадровый, профессиональный
Озвучка / Автор перевода:- LostFilm
Субтитры: отсутствуют--Режиссер: Эдвард Бьянчи, Агнешка Холланд, Фил Абрахам--
Актеры: Cет Джонсон, Эрик Ладин, Лиам Джеймс, Мирей Инос, Юэль Киннаман, Джейми Энн Оллман, Брент Секстон, Брендан Секстон III, Энни Корли, Билл Кэмпбелл--Описание фильма: Сериал рассказывает об одном убийстве с трех точек зрения — детективов, приставленных к этому делу, семьи погибшей и подозреваемых. Сюжет также затрагивает местных политиков и их связь с этим делом. Постепенно становится ясно, что здесь нет случайностей, у каждого свой секрет. И хотя персонажи думают, что они продолжают жить дальше, их прошлое еще не оставило их в покое.--Качество видео: WEB-DL 720p
Формат видео: MKV
Видео кодек: AVC (Main@L3.1)
Аудио кодек: AAC LC
Видео: AVC, 1280x720 (16:9), 29.970 fps, 4 000 Kbps (0.145 bit/pixel)
Аудио 1: AAC LC, 48.0 KHz, 2 ch, 253 Kbps, VBR [Русский]
Аудио 2: AC-3, 48.0 KHz, 6 ch, 384 Kbps, CBR, 16 бит [Английский] -- --

Список серий

01. Кровь в воде (Blood in the Water)
02. Разлад (Unraveling)
03. Хороший солдат (The Good Soldier)
04. Спи, детка, спи (Dream Baby Dream)
05. Разная правда (Truth Asunder)
06. Эдем (Eden)

Знаете ли Вы, что...

* Во второй серии третьего сезона Стивен Холдер (Юэль Киннаман) в разговоре со своей девушкой Кэролин Свифт (Джуэл Стэйт) упоминает, что хочет свести одну из своих татуировок — на груди у него надпись «Serenity». В 2005 году Джуэл Стэйт снялась в кинофильме «Миссия «Серенити»», являвшимся продолжением культового телесериала Джосса Уидона «Светлячок», где она также одну из главных ролей

Кадры из фильма

Тех. данные (MI)

Код:
General
Complete name : F:\FTP\Torrents\Serials\Убийство (Сезон 4)\The.Killing.S04E01.720p.WEB.rus.LostFilm.TV.mp4
Format : MPEG-4
Format profile : Base Media
Codec ID : isom
File size : 1.74 GiB
Duration : 59mn 13s
Overall bit rate mode : Variable
Overall bit rate : 4 211 Kbps
Collection : Убийство
Season : 4
Album : Убийство, Сезон 4
Album/Performer : Убийство
Part : 1
Part/Position : 4
Track name : Кровь в воде
Track name/Position : 1
Performer : Убийство
Genre : Drama
ContentType : TV Show
Recorded date : 2014
Encoded date : UTC 2014-08-02 18:38:24
Tagged date : UTC 2014-08-02 18:38:24
Writing application : Yamb 2.1.0.0 [http://yamb.unite-video.com] / LostCoder
Copyright : LostFilm.TV (c)
Cover : Yes
Part_ID : 401
Video
ID : 1
Format : AVC
Format/Info : Advanced Video Codec
Format profile : Main@L3.1
Format settings, CABAC : No
Format settings, ReFrames : 4 frames
Codec ID : avc1
Codec ID/Info : Advanced Video Coding
Duration : 59mn 13s
Bit rate : 4 000 Kbps
Maximum bit rate : 6 169 Kbps
Width : 1 280 pixels
Height : 720 pixels
Display aspect ratio : 16:9
Frame rate mode : Variable
Frame rate : 29.970 fps
Minimum frame rate : 25.000 fps
Maximum frame rate : 29.980 fps
Color space : YUV
Chroma subsampling : 4:2:0
Bit depth : 8 bits
Scan type : Progressive
Bits/(Pixel*Frame) : 0.145
Stream size : 1.64 GiB (94%)
Writing library : x264 core 112 r1834 a51816a
Encoding settings : cabac=0 / ref=3 / deblock=1:0:0 / analyse=0x1:0x111 / me=hex / subme=7 / psy=1 / psy_rd=1.00:0.00 / mixed_ref=1 / me_range=16 / chroma_me=1 / trellis=1 / 8x8dct=0 / cqm=0 / deadzone=21,11 / fast_pskip=1 / chroma_qp_offset=-2 / threads=6 / sliced_threads=0 / nr=0 / decimate=1 / interlaced=0 / constrained_intra=0 / bframes=3 / b_pyramid=2 / b_adapt=1 / b_bias=0 / direct=1 / weightb=1 / open_gop=0 / weightp=2 / keyint=250 / keyint_min=25 / scenecut=40 / intra_refresh=0 / rc_lookahead=40 / rc=abr / mbtree=1 / bitrate=4000 / ratetol=1.0 / qcomp=0.60 / qpmin=0 / qpmax=51 / qpstep=4 / vbv_maxrate=5000 / vbv_bufsize=2000 / ip_ratio=1.40 / aq=1:1.00 / nal_hrd=none
Language : English
Tagged date : UTC 2014-08-02 18:39:31
Audio
ID : 2
Format : AAC
Format/Info : Advanced Audio Codec
Format profile : LC
Codec ID : 40
Duration : 59mn 13s
Bit rate mode : Variable
Bit rate : 253 Kbps
Maximum bit rate : 312 Kbps
Channel(s) : 2 channels
Channel positions : Front: L R
Sampling rate : 48.0 KHz
Compression mode : Lossy
Stream size : 107 MiB (6%)
Encoded date : UTC 2014-08-02 18:39:14
Tagged date : UTC 2014-08-02 18:39:31

Раздача ведется путем добавления новых серий

Когда раздача ведётся путём добавления новых серий, при каждом добавлении создётся новый торрент. Чтобы начать докачку новой серии, пользователям необходимо сделать следующее:
(1) остановить скачивание,
(2) удалить старый торрент у себя из клиента (старые серии удалять не надо),
(3) скачать новый торрент и запустить его у себя в клиенте вместо старого, при этом указать клиенту путь в старую папку, куда и должно происходить скачивание новых серий.
Ваш клиент при этом должен произвести хеширование (проверку) старой папки (если не производит сам - помогите ему сделать это), и будет докачивать только те серии, которых у вас ещё нет. Старые серии при этом не удаляются, а продолжают раздаваться!
Eсли вы уже удалили старые серии, то предотвратить повторную закачку старых серий можно, отжав галочку в соответсвующих местах при запуске нового торрента. По возможности, желательно не удалять старые серии как можно дольше, чтобы релизёр не столько продолжал раздавать старые серии, а смог сконцентрироваться на новых.

_________________


Последний раз редактировалось: awk05 (2014-08-11 03:18), всего редактировалось 1 раз
[Торрент-статистика]
[Профиль]  [ЛС] 

ttan

Пол:

Стаж: 6 лет 7 месяцев

Сообщений: 603

Репутация: 378 [+] [-]

Откуда: где - то на Севере ...

Пост 05-Авг-2014 03:01 (спустя 45 минут)

[Цитировать] 

а предыдущие сезоны есть ?

_________________
[Торрент-статистика]
[Профиль]  [ЛС] 

awk05 ®

Пол:

Стаж: 6 лет 5 месяцев

Сообщений: 1347

Репутация: 275 [+] [-]

Откуда: Западная Украина Ривне

Пост 05-Авг-2014 14:46 (спустя 11 часов)

[Цитировать] 

ttan, поисковик на трекера работает есть все сезоны

_________________
[Торрент-статистика]
[Профиль]  [ЛС] 
Показать сообщения:    
Ответить на тему

Текущее время: Сегодня 04:46

Часовой пояс: GMT + 4



Вы не можете начинать темы
Вы не можете отвечать на сообщения
Вы не можете редактировать свои сообщения
Вы не можете удалять свои сообщения
Вы не можете голосовать в опросах
Вы не можете прикреплять файлы к сообщениям
Вы не можете скачивать файлы