Тайны Смолвиля / Smallville / Сезон 8 / Серии 1-22 (22) (Альфред Гоф / Alfred Gough, Майлз Миллар / Miles Millar) [2008-2009, фантастика, драма, BDRip 720p] MVO (СТС) + Original + Subs (Rus, Eng)

Ответить на тему
 
Автор
Сообщение

kaliasa ®

Пол:

Стаж: 7 лет

Сообщений: 113

Репутация: 84 [+] [-]

Пост 29-Май-2013 13:29

[Цитировать] 

Тайны Смолвиля / Smallville
Сезон 8, Серии 01-22
-Год выпуска: 2008-2009
Страна: USA / Canada
Жанр: Фантастика, Приключения, Молодежная драма
Продолжительность: ~ 00:43:00 x 22
Перевод: профессиональный многоголосый закадровый (СТС)
Субтитры: русские, английские-Режиссёры: Альфред Гоф / Alfred Gough, Майлз Миллар / Miles Millar-В ролях: Том Уэллинг / Tom Welling, Эллисон Мэк / Allison Mack, Эрика Дюранс / Erica Durance, Аарон Эшмор / Aaron Ashmore, Кэссиди Фриман / Cassidy Freeman, Сэм Уитвер / Sam Witwer, Джастин Хартли / Justin Hartley-Описание: "Тайны Смолвиля" - новый фантастический сериал о Супермэне.
На этот раз сюжет сфокусирован на подростковом периоде жизни Кларка Кента. Всё начинается с того, что в 1989 году, после метеоритного дождя в городе Смолвиль появляется маленький ребёнок - Кларк Кент.
Наши дни. Кларк учится в школе. Его удивительные способности заставляют, всё чаше задуматься о том кто он есть. К тому же он увлечён своей одноклассницей - Ланой Лэнг, чьи родители погибли во время метеоритного дождя. Это обстоятельство существенно осложняет их взаимоотношения. Заботливые родители Кларка пытаются любым путём сохранить его тайну, даже запрещают ему играть в школьной футбольной команде.
Однажды Кларк спасает жизнь молодого бизнесмена Лекса Лютера, когда его машина, потеряв управление, падает с моста в реку. С этого момента и начинается череда разных приключений Кларка.-Сэмпл: http://multi-up.com/835726-Качество: BDRip 720p
Формат: MKV
Видео кодек: x264
Аудио кодек: AC3
Видео: AVC, 1280x720 (16:9), 23.976fps, ~ 6 500 kbps, 0.297 bit/pixel
Аудио 1: AC3, 48 KHz. 16 bit, 2 ch, 192 kbps [Русский, СТС]
Аудио 2: AC3, 48 KHz, 16 bit, 6 ch, 640 kbps [Английский]-

Mi

Код:
General
Unique ID : 190737807598815048262789741264815321442 (0x8F7EC3F8FF115E4BBE8C64594F20F162)
Complete name : smallville.s08e01.Odyssey.720p.bluray.rus.mvo.eng.sub.mkv
Format : Matroska
Format version : Version 4 / Version 2
File size : 2.21 GiB
Duration : 42mn 40s
Overall bit rate : 7 402 Kbps
Movie name : Smallville Season 08 Episode 01 Odyssey - Одиссея [Russian - CTC + English + Sub]
Encoded date : UTC 2013-02-25 15:33:42
Writing application : mkvmerge v6.0.0 ('Coming Up For Air') built on Jan 20 2013 09:52:00
Writing library : libebml v1.3.0 + libmatroska v1.4.0
Video
ID : 1
Format : AVC
Format/Info : Advanced Video Codec
Format profile : High@L3.1
Format settings, CABAC : Yes
Format settings, ReFrames : 5 frames
Codec ID : V_MPEG4/ISO/AVC
Duration : 42mn 40s
Bit rate : 6 569 Kbps
Width : 1 280 pixels
Height : 720 pixels
Display aspect ratio : 16:9
Frame rate mode : Constant
Frame rate : 23.976 fps
Color space : YUV
Chroma subsampling : 4:2:0
Bit depth : 8 bits
Scan type : Progressive
Bits/(Pixel*Frame) : 0.297
Stream size : 1.91 GiB (87%)
Title : Smallville S08E01 Odyssey
Writing library : x264 core 68 r1184M 88b35c2
Encoding settings : cabac=1 / ref=5 / deblock=1:-2:-2 / analyse=0x3:0x133 / me=umh / subme=9 / psy_rd=1.0:0.0 / mixed_ref=1 / me_range=24 / chroma_me=1 / trellis=2 / 8x8dct=1 / cqm=0 / deadzone=21,11 / chroma_qp_offset=-2 / threads=6 / nr=0 / decimate=0 / mbaff=0 / bframes=6 / b_pyramid=1 / b_adapt=2 / b_bias=0 / direct=3 / wpredb=1 / keyint=250 / keyint_min=25 / scenecut=40 / rc=2pass / bitrate=6569 / ratetol=2.0 / qcomp=0.60 / qpmin=10 / qpmax=51 / qpstep=4 / cplxblur=20.0 / qblur=0.5 / ip_ratio=1.40 / pb_ratio=1.30 / aq=1:1.00
Language : English
Default : Yes
Forced : No
Audio #1
ID : 2
Format : AC-3
Format/Info : Audio Coding 3
Mode extension : CM (complete main)
Format settings, Endianness : Big
Codec ID : A_AC3
Duration : 42mn 40s
Bit rate mode : Constant
Bit rate : 192 Kbps
Channel(s) : 2 channels
Channel positions : Front: L R
Sampling rate : 48.0 KHz
Bit depth : 16 bits
Compression mode : Lossy
Stream size : 58.6 MiB (3%)
Title : MVO CTC @ AC3 2.0 192 kbps
Language : Russian
Default : Yes
Forced : No
Audio #2
ID : 3
Format : AC-3
Format/Info : Audio Coding 3
Mode extension : CM (complete main)
Format settings, Endianness : Big
Codec ID : A_AC3
Duration : 42mn 40s
Bit rate mode : Constant
Bit rate : 640 Kbps
Channel(s) : 6 channels
Channel positions : Front: L C R, Side: L R, LFE
Sampling rate : 48.0 KHz
Bit depth : 16 bits
Compression mode : Lossy
Stream size : 195 MiB (9%)
Title : Original
Language : English
Default : No
Forced : No
Text #1
ID : 4
Format : UTF-8
Codec ID : S_TEXT/UTF8
Codec ID/Info : UTF-8 Plain Text
Title : by Relicit
Language : Russian
Default : No
Forced : No
Text #2
ID : 5
Format : UTF-8
Codec ID : S_TEXT/UTF8
Codec ID/Info : UTF-8 Plain Text
Title : Original
Language : English
Default : No
Forced : No
-

Скриншоты


- --=-1 сезон-=- -=-6 сезон-=- -=-7 сезон-=- -=- 8 сезон-=--


Последний раз редактировалось: kaliasa (2013-09-03 15:35), всего редактировалось 3 раз(а)
[Торрент-статистика]
[Профиль]  [ЛС] 

ArtZak

Пол:

Стаж: 7 лет 5 месяцев

Сообщений: 2921

Репутация: 1366 [+] [-]

Откуда: Россия

Пост 29-Май-2013 19:34 (спустя 6 часов)

[Цитировать] 

Старый добрый Смолвиль... Помню одно время постоянно смотрел....
[Торрент-статистика]
[Профиль]  [ЛС] 
Показать сообщения:    
Ответить на тему

Текущее время: Сегодня 12:40

Часовой пояс: GMT + 4



Вы не можете начинать темы
Вы не можете отвечать на сообщения
Вы не можете редактировать свои сообщения
Вы не можете удалять свои сообщения
Вы не можете голосовать в опросах
Вы не можете прикреплять файлы к сообщениям
Вы не можете скачивать файлы