Владимир Высоцкий - Документальное кино (3 DVD) [2011 г., Авторская песня / Документальный / Концерт, DVD5]

Ответить на тему
 
Автор
Сообщение

AZLK ®

Пол:

Стаж: 8 лет

Сообщений: 110

Репутация: 11 [+] [-]

Откуда: Москва, Солнцево

Пост 04-Дек-2011 09:14

[Цитировать] 

Владимир Высоцкий - Документальное кино (3 DVD)
Год выпуска: 2011
Страна: Россия
Жанр: Авторская песня / Документальный / Концерт
Продолжительность: 01:07:00 | 01:00:00 | 00:54:00
Выпущено: Квадро-Диск
Исполнитель: Владимир Высоцкий
Дополнительные материалы: Анонсы и ролики изданий компании "Квадро-Диск" (видеоклипы, концерты, караоке, кинофильмы)
Субтитры: Присутствуют в некоторых съемках иностранных компаний, вшитые, не отключаемые.
Описание: Владимир Высоцкий: Документальное кино - Подарочное издание (3-х дисковый digipak в картонном боксе) включает 3 фильма - "Неизвестный, которого знали все", "Черногорские мотивы", "Уйду я в это лето...". Владимир Семёнович Высоцкий (25 января 1938, Москва — 25 июля 1980 ) уже при жизни стал человеком-эпохой. Его уникальный голос обладал магическим воздействием на слушателей. Песни Высоцкого звучали почти во всех домах, их переписывали и заучивали. В них искали ответы на самые разные жизненные вопросы, которые по-настоящему волновали современников. Как известно, поэт в России больше, чем поэт. И явление Владимира Высоцкого, его место в истории русской культуры — яркое тому подтверждение.
Качество: DVD5
Формат: DVD Video
Видео кодек: MPEG2
Аудио кодек: AC3 (Dolby Digital)
Видео: PAL 4:3 (720x576) VBR 6300 kbps
Аудио: Русский (Dolby AC3, 2 ch) 224 kbps

Disc 1: Владимир Высоцкий - Неизвестный, которого знали все

Продолжительность: 01:06:56
В ролях: Владимир Высоцкий
1967, СССР
В основу д/ф "Владимир Высоцкий: Неизвестный, которого знали все" легли уникальные материалы - киножурналы, кинопробы несыгранной роли, любительские съемки, фрагменты интервью... Кадры Польской Кинохроники 1967 года, обнаруженные в архивах лишь спустя сорок лет, были, как оказалось, первой съемкой Высоцкого, сделанной зарубежными документалистами. Им удалось запечатлеть неформальную встречу молодых актеров - Н. Губенко, В. Абдулова, Л. Абрамовой и В. Высоцкого, собравшихся на квартире В. Ивашова и С. Светличной. В настоящем издании впервые представлены эксклюзивные кадры празднования 10-летнего и 15-летнего юбилеев Театра на Таганке в 1974 и 1979 годах, а также уникальный сюжет Телевидения Польши о последних гастролях Таганки с Высоцким в Варшаве в мае 1980 года.
"Неизвестный, которого знали все..." (Документальный фильм)
01. "Вершина"
02. Владимир Высоцкий об авторской песне
03. "Парус"
04. Фрагмент киножурнала о Театре на Таганке, 1965 год
05. "Как четвертого числа..."
06. Сюжет "Польской кинохроники" о Театре на Таганке, 1967 год
07. "Братские могилы"
08. "Заборы"
09. "Речечка"
10. "Скалолазка"
11. Владимир Высоцкий о съемках в фильме "На завтрашней улице"
12. "Сколько чудес за туманами кроется..."
13. Владимир Высоцкий о критических публикациях в прессе
14. "Такова уж воровская доля..."
15. "Парус"
16. "Еще не вечер"
"Не юбилей, а просто десять лет..." (Сюжет Сергея Подколзина о 10-летии Театра на Таганке, 23.04.1974)
17. "Легавым быть - готов был умереть я..."
18. Поздравление Таганки актерами театра "Современник"
19."Дорожные жалобы"
20."Для чего ты дрался, барин..."
21."Баллада о короткой шее"
22."Чужая колея" (фрагмент)
"15 залпов" (Сюжет Петра Солдатенкова о 15-летии театра на Таганке, 23.04.1979)
23. "Пятнадцать лет не дата…"
24. Поздравление Таганки друзьями театра
"Воспоминание о Владимире Высоцком" (Сюжет ТВ Польши о гастролях Театра на Таганке, 1980 год)
25. Авторский комментарий к сюжету о Владимире Высоцком
26. Фрагмент спектакля "Добрый человек из Сезуана"
27. Фрагменты спектакля "Гамлет"
28. "Сто тысяч дорог позади..."
Бонусы на диске: анонсы и ролики изданий компании "Квадро-Диск"

MediaInfo…

Видео
Идентификатор : 224 (0xE0)
Формат : MPEG Video
Версия формата : Version 2
Профиль формата : Main@Main
Параметр BVOP формата : Да
Параметр матрицы формата : Выборочная
Параметры GOP формата : M=3, N=15
Продолжительность : 21 м.
Вид битрейта : Переменный
Битрейт : 6301 Кбит/сек
Максимальный битрейт : 8500 Кбит/сек
Ширина : 720 пикс.
Высота : 576 пикс.
Соотношение сторон : 4:3
Частота кадров : 25,000 кадр/сек
Стандарт вещания : PAL
Цветовое пространство : YUV
Подвыборка цветности : 4:2:0
Битовая глубина : 8 бит
Тип развёртки : Чересстрочная
Порядок развёртки : Верхнее поле первое
Метод сжатия : С потерями
Бит/(Пиксели*Кадры) : 0.608
Размер потока : 969 Мбайт (95%)
Аудио
Идентификатор : 192 (0xC0)
Формат : MPEG Audio
Версия формата : Version 1
Профиль формата : Layer 2
Продолжительность : 21 м.
Вид битрейта : Постоянный
Битрейт : 224 Кбит/сек
Каналы : 2 канала
Частота : 48,0 КГц
Метод сжатия : С потерями
Размер потока : 34,4 Мбайт (3%)

Скриншоты




Disc 2: Владимир Высоцкий - Черногорские мотивы

Продолжительность: 00:59:41
В ролях: Владимир Высоцкий
1974, СССР
Впервые Владимир Высоцкий оказался в Югославии в августе 1974 года. Во время съемок х/ф "Единственная дорога" телевидением Титограда была сделана передача о поэте и актере. Лишь спустя три с половиной десятилетия эта пленка была обнаружена в архивах. И теперь российский зритель имеет возможность увидеть этот материал полностью, в первоначальном виде.
Следующий приезд Высоцкого в Югославию состоялся в сентябре 1976 года. На фестивале БИТЕФ Театр на Таганке завоевал первое место. Тогда же в эфир телевидения Белграда вышла передача "Гамлет и вокруг Гамлета".
Фрагменты этой уникальной съемки впервые представлены в настоящем издании.
01. Владимир Высоцкий о съемках в Черногории
"Владимир Высоцкий" (ТВ Титограда, 1974 год)
02. "Корабли" (фрагмент)
03. Владимир Высоцкий о своей работе в Театре на Таганке
04. "Когда на смерть идут…"
05. Владимир Высоцкий о Юрии Любимове, о спектакле "Гамлет"
06. "Гул затих, я вышел на подмостки..."
07. Владимир Высоцкий о работе в кино
08. "Братские могилы"
09. "Песня о Земле"
10. "Мы вращаем Землю"
11. "Он не вернулся из боя"
12. "Расстрел горного эха"
13. "Черногорские мотивы"
14. "Утренняя гимнастика"
15. Прощание с югославскими зрителями
16. Владимир Высоцкий о гастролях Театра на Таганке в Югославии
"Гамлет и вокруг Гамлета" (ТВ Белграда, 1976 год)
17. Мирослав Белович о спектакле "Гамлет" на фестивале БИТЕФ
18. Юрий Любимов об истории создания спектакля
19. Владимир Высоцкий о работе над спектаклем
20. Юрий Любимов о современном театре
21. Мирослав Белович о Театре на Таганке
22. Юрий Любимов о работе с актерами
23. "Если где-то в глухой, неспокойной ночи…"
Бонусы на диске: анонсы и ролики изданий компании "Квадро-Диск"

MediaInfo…

Видео
Идентификатор : 224 (0xE0)
Формат : MPEG Video
Версия формата : Version 2
Профиль формата : Main@Main
Параметр BVOP формата : Да
Параметр матрицы формата : Выборочная
Параметры GOP формата : M=3, N=15
Продолжительность : 20 м.
Вид битрейта : Переменный
Битрейт : 6513 Кбит/сек
Максимальный битрейт : 8500 Кбит/сек
Ширина : 720 пикс.
Высота : 576 пикс.
Соотношение сторон : 4:3
Частота кадров : 25,000 кадр/сек
Стандарт вещания : PAL
Цветовое пространство : YUV
Подвыборка цветности : 4:2:0
Битовая глубина : 8 бит
Тип развёртки : Чересстрочная
Порядок развёртки : Верхнее поле первое
Метод сжатия : С потерями
Бит/(Пиксели*Кадры) : 0.628
Размер потока : 970 Мбайт (95%)
Аудио
Идентификатор : 192 (0xC0)
Формат : MPEG Audio
Версия формата : Version 1
Профиль формата : Layer 2
Продолжительность : 20 м.
Вид битрейта : Постоянный
Битрейт : 224 Кбит/сек
Каналы : 2 канала
Частота : 48,0 КГц
Метод сжатия : С потерями
Размер потока : 33,4 Мбайт (3%)

Скриншоты

Disc 3: Владимир Высоцкий - Уйду я в это лето...

Продолжительность: 00:54:14
В ролях: Владимир Высоцкий
1976, СССР
...Внезапная смерть Владимира Высоцкого, потрясшая всю страну и в одночасье обернувшаяся личным горем для сотен тысяч советских людей, нарушила размеренный ход событий в Олимпийской Москве. Вопреки всем ограничениям и запретам поэта провожали в последний путь как национального героя... В фильме впервые демонстрируются уникальные кадры, запечатлевшие Владимира Высоцкого в образе Гамлета, сделанные телевидением Югославии в 1976 году во время проведения Международного театрального фестиваля БИТЕФ в Белграде. Также использованы эксклюзивные съемки зарубежных телекомпаний, сделанные в Москве в день прощания с поэтом 28 июля 1980 года.
"Уйду я в это лето..." (Документальный фильм Александра Ковановского и Игоря Рахманова)
01. "Памятник" (фрагмент)
02. "Кони привередливые" (фрагмент)
03. Хроника открытия Олимпиады-80
04. Сообщение о смерти Владимира Высоцкого
05. Фрагмент спектакля "Гамлет" (У. Шекспир, пер. - Б. Пастернак)
06. "Райские яблоки" (фрагмент)
07. Юрий Любимов о прощании с Владимиром Высоцким
08. "Я не люблю"
09. Василий Аксенов о Владимире Высоцком
10. Всеволод Абдулов о Владимире Высоцком
11. "Охота на волков"
12. Юрий Любимов о популярности Высоцкого
13. Владимир Высоцкий о спектакле "Гамлет"
14. "Гул затих, я вышел на подмостки..."
15. Владимир Высоцкий о работе над ролью Гамлета
16. Фрагмент спектакля "Гамлет" (У. Шекспир, пер. - Б. Пастернак)
17. Репортаж о похоронах Высоцкого
18. Петр Солдатенков о съемке в день прощания
19. Прощание с Владимиром Высоцким на Таганской площади
20. Фрагмент спектакля "Гамлет" (У. Шекспир, пер. - Б. Пастернак)
21. "Памяти поэта" (А. Градский)
22. Фрагмент спектакля "Гамлет" (У. Шекспир, пер. - Б. Пастернак)
23. Прощание с Владимиром Высоцким на Ваганьковском кладбище
24. "Баллада об уходе в рай
Бонусы на диске: анонсы и ролики изданий компании "Квадро-Диск"

MediaInfo…

Видео
Идентификатор : 224 (0xE0)
Формат : MPEG Video
Версия формата : Version 2
Профиль формата : Main@Main
Параметр BVOP формата : Да
Параметр матрицы формата : Выборочная
Параметры GOP формата : M=3, N=15
Продолжительность : 21 м.
Вид битрейта : Переменный
Битрейт : 6228 Кбит/сек
Максимальный битрейт : 8500 Кбит/сек
Ширина : 720 пикс.
Высота : 576 пикс.
Соотношение сторон : 4:3
Частота кадров : 25,000 кадр/сек
Стандарт вещания : PAL
Цветовое пространство : YUV
Подвыборка цветности : 4:2:0
Битовая глубина : 8 бит
Тип развёртки : Чересстрочная
Порядок развёртки : Верхнее поле первое
Метод сжатия : С потерями
Бит/(Пиксели*Кадры) : 0.601
Размер потока : 969 Мбайт (95%)
Аудио
Идентификатор : 192 (0xC0)
Формат : MPEG Audio
Версия формата : Version 1
Профиль формата : Layer 2
Продолжительность : 21 м.
Вид битрейта : Постоянный
Битрейт : 224 Кбит/сек
Каналы : 2 канала
Частота : 48,0 КГц
Метод сжатия : С потерями
Размер потока : 34,8 Мбайт (3%)

Скриншоты

Скриншоты

[Торрент-статистика]
[Профиль]  [ЛС] 
Показать сообщения:    
Ответить на тему

Текущее время: Сегодня 16:29

Часовой пояс: GMT + 4



Вы не можете начинать темы
Вы не можете отвечать на сообщения
Вы не можете редактировать свои сообщения
Вы не можете удалять свои сообщения
Вы не можете голосовать в опросах
Вы не можете прикреплять файлы к сообщениям
Вы не можете скачивать файлы