Иван Царевич и Серый Волк 2 (Владимир Торопчин) [2013 г., мультфильм, приключения, семейный, фэнтези, DVDRip] [Лицензия]

Ответить на тему
 
Автор
Сообщение

nova1980 ®

Пол:

Стаж: 6 лет 6 месяцев

Сообщений: 817

Репутация: 526 [+] [-]

Откуда: Одесса Мама

Пост 05-Ноя-2013 11:48

[Цитировать] 

Иван Царевич и Серый Волк 2- Год выпуска: 2013
Страна: Россия
Жанр: мультфильм, приключения, семейный, фэнтези
Продолжительность: 01:10:52
Режиссер: Владимир Торопчин- -Роли дублировали:
Никита Ефремов, Татьяна Бунина, Иван Охлобыстин, Михаил Боярский, Ирина Рахманова, Александр Боярский и др.
Описание:
В Тридевятом царстве, где живут наши герои — тишь, да благодать. Иван женился на Василисе, и «жили они долго и счастливо», да не тут-то было. Иван целыми днями пропадает с Волком на службе — укрепляет рубежи и оборонную мощь, мечтает перевести стрелки часов на семь часов назад, чтобы меньше спать, и больше работать. А Василисе — скучно, как всем девушкам, ей хочется романтики, ну, такой, как в сказках. И тогда она решает организовать свое похищение… Однако, когда такое бывало, что в сказках все получалось так, как задумывалось?
Премьера (мир) и РФ: 26 декабря 2013
Релиз на DVD и Blu-Ray: 21 января 2014, «Lizard Cinema Trade»
Тип релиза: DVDRip | Сэмпл
Контейнер: AVI
Видео кодек: XviD
Аудио кодек: MP3 (MPEG1 Layer 3)
Видео: MPEG4, XviD, 720x400 (16:9), 25.000 fps, 2 348 Kbps (0.326 bit/pixel)
Аудио: AC-3, 48.0 KHz, 6 ch, 448 Kbps, CBR

MI

Код:
General
Complete name                            : E:\downloads\Ivan.Tsarevich.i.Seriy.Volk.2.O.DVDRip.1400MB.avi
Format                                   : AVI
Format/Info                              : Audio Video Interleave
File size                                : 1.37 GiB
Duration                                 : 1h 9mn
Overall bit rate                         : 2 806 Kbps
Writing application                      : VirtualDubMod 1.5.10.3 | www.virtualdub-fr.org || (build 2550/release)
Writing library                          : VirtualDubMod build 2550/release
Video
ID                                       : 0
Format                                   : MPEG-4 Visual
Format profile                           : Advanced Simple@L5
Format settings, BVOP                    : 2
Format settings, QPel                    : No
Format settings, GMC                     : No warppoints
Format settings, Matrix                  : Default (MPEG)
Codec ID                                 : XVID
Codec ID/Hint                            : XviD
Duration                                 : 1h 9mn
Bit rate                                 : 2 348 Kbps
Width                                    : 720 pixels
Height                                   : 400 pixels
Display aspect ratio                     : 16:9
Frame rate                               : 25.000 fps
Color space                              : YUV
Chroma subsampling                       : 4:2:0
Bit depth                                : 8 bits
Scan type                                : Progressive
Compression mode                         : Lossy
Bits/(Pixel*Frame)                       : 0.326
Stream size                              : 1.14 GiB (84%)
Writing library                          : XviD 1.2.1 (UTC 2008-12-04)
Audio
ID                                       : 1
Format                                   : AC-3
Format/Info                              : Audio Coding 3
Mode extension                           : CM (complete main)
Format settings, Endianness              : Big
Codec ID                                 : 2000
Duration                                 : 1h 9mn
Bit rate mode                            : Constant
Bit rate                                 : 448 Kbps
Channel count                            : 6 channels
Channel positions                        : Front: L C R, Side: L R, LFE
Sampling rate                            : 48.0 KHz
Bit depth                                : 16 bits
Compression mode                         : Lossy
Stream size                              : 224 MiB (16%)
Alignment                                : Split accross interleaves
Interleave, duration                     : 40 ms (1.00 video frame)
Interleave, preload duration             : 500 ms

Скриншоты



_________________
Мои Раздачи
[Торрент-статистика]
[Профиль]  [ЛС] 

dolor7

Стаж: 6 лет 6 месяцев

Сообщений: 4

Репутация: 0 [+] [-]

Пост 01-Фев-2018 15:22 (спустя 4 года 2 месяца)

[Цитировать] 

Отлично! Благодаря!
[Торрент-статистика]
[Профиль]  [ЛС] 
Показать сообщения:    
Ответить на тему

Текущее время: Сегодня 04:45

Часовой пояс: GMT + 4



Вы не можете начинать темы
Вы не можете отвечать на сообщения
Вы не можете редактировать свои сообщения
Вы не можете удалять свои сообщения
Вы не можете голосовать в опросах
Вы не можете прикреплять файлы к сообщениям
Вы не можете скачивать файлы