Бременские музыканты / По следам бременских музыкантов (Инесса Ковалевская, Василий Ливанов) [1969 г., Мультфильм, мюзикл, семейный, DVDRip]

Ответить на тему
 
Автор
Сообщение

alien.09 ®

Пол:

Стаж: 5 лет 8 месяцев

Сообщений: 627

Репутация: 569 [+] [-]

Пост 22-Июл-2013 14:51

[Цитировать] 

--Бременские музыканты / По следам бременских музыкантов--Год выпуска: 1969-1973
Страна: СССР
Жанр: Мультфильм, мюзикл, семейный
Продолжительность: ~00:20:28 х2-Режиссер: Инесса Ковалевская, Василий Ливанов-В ролях: Эльмира Жерздева, Олег Фнофриев, Анатолий Горохов, Геннадий Гладков, Муслим Магомаев--Описание: Музыкальная фантазия, любимая не одним поколением зрителей, о необыкновенных, очень опасных и веселых приключениях бременских музыкантов: Трубадура, кота, собаки, петуха и осла. Музыканты путешествуют по Германии времен братьев Гримм и поют вполне современные песни. Время от времени совершают подвиги. Все было хорошо, но во время одного циркового представления приглянулась нашему герою принцесса…
Король, желая вернуть во дворец свою дочь, нанимает опытного сыщика, который успешно выполняет задание. Но Трубадур и его верные друзья — осёл, пёс, кот и петух — спешат вызволить принцессу из золотой клетки.-- --Тип релиза: DVDRip
Контейнер: MKV
Видео кодек: H264 (AVC)
Аудио кодек: AC3 (Dolby Digital)
Видео: AVC at ~2374 Кбит/сек, 718 x 576 (1.330) at 25.000 fps
Аудио: 718 x 576 (1.330) at 25.000 fps, 6 каналов, 48,0 КГц

MI Report

Общее
Уникальный идентификатор : 227290110112685290326827805115227091461 (0xAAFE7BA02E3020E7870450F3F3F4B205)
Полное имя : C:\Users\Gary\Desktop\Новая папка\Бременские музыканты.mkv
Формат : Matroska
Версия формата : Version 4 / Version 2
Размер файла : 422 Мбайт
Продолжительность : 20 м.
Общий поток : 2880 Кбит/сек
Название фильма : Бременские музыканты RG BrodimCom
Дата кодирования : UTC 2013-07-22 09:33:46
Программа кодирования : mkvmerge v6.3.0 ('You can't stop me!') built on Jun 28 2013 20:09:41
Библиотека кодирования : libebml v1.3.0 + libmatroska v1.4.0
Видео
Идентификатор : 1
Формат : AVC
Формат/Информация : Advanced Video Codec
Профиль формата : High@L4.0
Параметр CABAC формата : Да
Параметр ReFrames формата : 16 кадров
Идентификатор кодека : V_MPEG4/ISO/AVC
Продолжительность : 20 м.
Битрейт : 2374 Кбит/сек
Ширина : 718 пикселей
Высота : 576 пикселей
Соотношение сторон : 4:3
Режим частоты кадров : Постоянный
Частота кадров : 25,000 кадров/сек
Цветовое пространство : YUV
Субдискретизация насыщенности : 4:2:0
Битовая глубина : 8 бит
Тип развёртки : Прогрессивная
Бит/(Пиксели*Кадры) : 0.230
Размер потока : 348 Мбайт (82%)
Библиотека кодирования : x264 core 118 r2085kMod 8a62835
Настройки программы : cabac=1 / ref=16 / deblock=1:0:0 / analyse=0x3:0x113 / me=umh / subme=10 / psy=1 / fade_compensate=0.00 / psy_rd=1.00:0.10 / mixed_ref=1 / me_range=24 / chroma_me=1 / trellis=2 / 8x8dct=1 / cqm=0 / deadzone=21,11 / fast_pskip=0 / chroma_qp_offset=-3 / threads=6 / sliced_threads=0 / nr=0 / decimate=1 / interlaced=0 / bluray_compat=0 / constrained_intra=0 / bframes=9 / b_pyramid=2 / b_adapt=2 / b_bias=0 / direct=1 / weightb=1 / open_gop=0 / weightp=2 / keyint=250 / keyint_min=25 / scenecut=40 / intra_refresh=0 / rc_lookahead=60 / rc=crf / mbtree=1 / crf=21.9900 / qcomp=0.60 / qpmin=0 / qpmax=69 / qpstep=4 / ip_ratio=1.40 / aq=2:1.00
Язык : Russian
Default : Да
Forced : Нет
Аудио
Идентификатор : 2
Формат : AC-3
Формат/Информация : Audio Coding 3
Расширение режима : CM (complete main)
Параметр Endianness формата : Big
Идентификатор кодека : A_AC3
Продолжительность : 20 м.
Вид битрейта : Постоянный
Битрейт : 448 Кбит/сек
Каналы : 6 каналов
Расположение каналов : Front: L C R, Side: L R, LFE
Частота : 48,0 КГц
Битовая глубина : 16 бит
Метод сжатия : С потерями
Задержка видео : 468 мс.
Размер потока : 65,6 Мбайт (16%)
Язык : Russian
Default : Да
Forced : Да

Скриншоты


_________________
Правообладатели, убейтесь об эту надпись.
[Торрент-статистика]
[Профиль]  [ЛС] 
Показать сообщения:    
Ответить на тему

Текущее время: Сегодня 11:13

Часовой пояс: GMT + 4



Вы не можете начинать темы
Вы не можете отвечать на сообщения
Вы не можете редактировать свои сообщения
Вы не можете удалять свои сообщения
Вы не можете голосовать в опросах
Вы не можете прикреплять файлы к сообщениям
Вы не можете скачивать файлы