Снежная королева (Максим Свешников, Владлен Барбэ) [2012 г., мультфильм, фэнтези, приключения, семейный, DVDRip]

Ответить на тему
 
Автор
Сообщение

тукваква ®

Пол:

Стаж: 5 лет 6 месяцев

Сообщений: 158

Репутация: 909 [+] [-]

Откуда: землянин

Пост 13-Май-2013 21:23

[Цитировать] 

Снежная королева
«Главное новогоднее приключение»
Год выпуска: 2012
Страна: Россия
Жанр: мультфильм, фэнтези, приключения, семейный
Продолжительность: 01:12:58
Режиссер: Максим Свешников, Владлен Барбэ
В ролях: Нюша Шурочкина, Иван Охлобыстин, Галина Тюнина, Дмитрий Нагиев, Лиза Арзамасова, Людмила Артемьева, Юрий Стоянов, Анна Ардова, Рамиля Искандер, Ольга Шорохова
Описание: В стремлении сотворить Новый мир — холодный и практичный, где четкость линий призвана заменить эмоции, а северный ветер должен остудить людские души, Снежная Королева избавляется от всех представителей творческих профессий. Маленькой и смелой Герде, отправившейся в опасное путешествие, чтобы спасти своего брата Кая, предстоит столкнуться с этим холодным миром Снежной Королевы. Преодолевая все сложности и преграды на пути к своей цели, Герда не только обретает семью, но и веру в себя, находит поддержку новых друзей.

Тип релиза: DVDRip
Контейнер: AVI
Видео кодек: XviD
Аудио кодек: AC3 (Dolby Digital)-Видео: 720x400 (16:9), 25 fps, XviD build 50 ~2228 kbps avg, 0.31 bit/pixel
Аудио: 48 kHz, AC3 Dolby Digital, 3/2 (L,C,R,l,r) + LFE ch, ~448 kbps- Сэмпл

Скриншоты






MediaInfo

D:\Фильмы\Snejnaya Koroleva.avi
General
Complete name : D:\Фильмы\Snejnaya Koroleva.avi
Format : AVI
Format/Info : Audio Video Interleave
File size : 1.37 GiB
Duration : 1h 12mn
Overall bit rate : 2 686 Kbps
Writing application : VirtualDubMod 1.5.10.2 (build 2542/release)
Writing library : VirtualDubMod build 2542/release
Video #0
ID : 0
Format : MPEG-4 Visual
Format profile : Advanced Simple@L5
Format settings, BVOP : Yes
Format settings, QPel : No
Format settings, GMC : No warppoints
Format settings, Matrix : Default (MPEG)
Codec ID : XVID
Codec ID/Hint : XviD
Duration : 1h 12mn
Bit rate : 2 228 Kbps
Width : 720 pixels
Height : 400 pixels
Display aspect ratio : 16:9
Frame rate : 25.000 fps
Color space : YUV
Chroma subsampling : 4:2:0
Bit depth : 8 bits
Scan type : Progressive
Bits/(Pixel*Frame) : 0.309
Stream size : 1.14 GiB (83%)
Writing library : XviD 1.2.1 (UTC 2008-12-04)
Audio #1
ID : 1
Format : AC-3
Format/Info : Audio Coding 3
Mode extension : CM (complete main)
Codec ID : 2000
Duration : 1h 12mn
Bit rate mode : Constant
Bit rate : 448 Kbps
Channel(s) : 6 channels
Channel positions : Front: L C R, Side: L R, LFE
Sampling rate : 48.0 KHz
Bit depth : 16 bits
Stream size : 234 MiB (17%)
Alignment : Split accross interleaves
Interleave, duration : 40 ms (1.00 video frame)
Interleave, preload duration : 500 ms

_________________


Последний раз редактировалось: тукваква (2013-05-14 04:56), всего редактировалось 1 раз
[Торрент-статистика]
[Профиль]  [ЛС] 

Lordik

Стаж: 5 лет 6 месяцев

Сообщений: 50

Репутация: 769 [+] [-]

Откуда: сел.Раменье

Пост 13-Май-2013 22:08 (спустя 45 минут)

[Цитировать] 

тукваква ®
Если что я теперь не Сфинксик а Lordik. Забанили наверное.
[Торрент-статистика]
[Профиль]  [ЛС] 

ArtZak

Пол:

Стаж: 7 лет 1 месяц

Сообщений: 2943

Репутация: 1364 [+] [-]

Откуда: Россия

Пост 13-Май-2013 23:52 (спустя 1 час 44 минуты)

[Цитировать] 

тукваква, тут тоже скрины не соответствут заявленным тех данным. Исправьте, будьте добры.
[Торрент-статистика]
[Профиль]  [ЛС] 

тукваква ®

Пол:

Стаж: 5 лет 6 месяцев

Сообщений: 158

Репутация: 909 [+] [-]

Откуда: землянин

Пост 14-Май-2013 04:57 (спустя 5 часов)

[Цитировать] 

ArtZak,
Сори сразу не посмотрел, похоже хостинг занизил размер.

_________________
[Торрент-статистика]
[Профиль]  [ЛС] 

ArtZak

Пол:

Стаж: 7 лет 1 месяц

Сообщений: 2943

Репутация: 1364 [+] [-]

Откуда: Россия

Пост 14-Май-2013 10:20 (спустя 5 часов)

[Цитировать] 

тукваква, порядок!
[Торрент-статистика]
[Профиль]  [ЛС] 
Показать сообщения:    
Ответить на тему

Текущее время: Сегодня 10:04

Часовой пояс: GMT + 4



Вы не можете начинать темы
Вы не можете отвечать на сообщения
Вы не можете редактировать свои сообщения
Вы не можете удалять свои сообщения
Вы не можете голосовать в опросах
Вы не можете прикреплять файлы к сообщениям
Вы не можете скачивать файлы