Иван Царевич и Серый Волк (Владимир Торопчин) [2011 г., Мультфильм, семейный, DVDRip]

Ответить на тему
 
Автор
Сообщение

диманыыч ®

Пол:

Стаж: 6 лет 11 месяцев

Сообщений: 39

Репутация: 8 [+] [-]

Откуда: Саратов

Пост 14-Янв-2012 18:21

[Цитировать] 

Иван Царевич и Серый Волк (2011) DVDRipРусское название: Иван Царевич и Серый Волк
Год выпуска: 2011
Страна: Россия
Жанр: Мультфильм, семейный
Продолжительность: 01:22:30
Перевод: Оригинал [лицензия]
Режиссер: Владимир Торопчин
Продюсер: Сергей Сельянов, Александр Боярский
В ролях: Никита Ефремов, Иван Охлобыстин, Артур Смольянинов, Лия Ахеджакова, Кристина Асмус, Виктор Сухоруков, Сергей Гармаш, Михаил Боярский...
Описание: Увлекательная история от создателей богатырской трилогии, в которой героев русских народных сказок ждут новые приключения, опасности и забавные ситуации.
Тип релиза: DVDRip
Контейнер: AVI
Видео кодек: MPEG-4 Visual
Аудио кодек: AC3 (Dolby Digital)
Видео: Формат : AVI
Битрейт : 1917 Кбит/сек
Ширина : 720 пикселей
Высота : 400 пикселей
Соотношение сторон : 16:9
Частота кадров : 25,000 кадров/сек
Аудио: Формат : AC-3
Битрейт : 448 Кбит/сек
Каналы : 6 каналов
Расположение каналов : Front: L C R, Side: L R, LFE
Частота : 48,0 КГц
Рейтинг фильма:

Трейлеры

MediaInfo:

Общее
Полное имя : Ivan.carevech.i.seryi.volk.2011.O.DVDRip.
Формат : AVI
Формат/Информация : Audio Video Interleave
Размер файла : 1,37 Гбайт
Продолжительность : 1 ч. 22 м.
Общий поток : 2375 Кбит/сек
Программа кодирования : VirtualDubMod 1.5.10.2 (build 2540/release)
Библиотека кодирования : VirtualDubMod build 2540/release
Видео
Идентификатор : 0
Формат : MPEG-4 Visual
Профиль формата : Advanced Simple@L5
Параметр BVOP формата : 2
Параметр QPel формата : Нет
Параметр GMC формата : Без точки перехода
Параметр матрицы формата : Default (MPEG)
Идентификатор кодека : XVID
Идентификатор кодека/Подсказка : XviD
Продолжительность : 1 ч. 22 м.
Битрейт : 1917 Кбит/сек
Ширина : 720 пикселей
Высота : 400 пикселей
Соотношение сторон : 16:9
Частота кадров : 25,000 кадров/сек
Цветовое пространство : YUV
Субдискретизация насыщенности : 4:2:0
Битовая глубина : 8 бит
Тип развёртки : Прогрессивная
Метод сжатия : С потерями
Бит/(Пиксели*Кадры) : 0.266
Размер потока : 1,10 Гбайт (81%)
Библиотека кодирования : XviD 1.2.1 (UTC 2008-12-04)
Аудио
Идентификатор : 1
Формат : AC-3
Формат/Информация : Audio Coding 3
Расширение режима : CM (complete main)
Идентификатор кодека : 2000
Продолжительность : 1 ч. 22 м.
Вид битрейта : Постоянный
Битрейт : 448 Кбит/сек
Каналы : 6 каналов
Расположение каналов : Front: L C R, Side: L R, LFE
Частота : 48,0 КГц
Битовая глубина : 16 бит
Метод сжатия : С потерями
Размер потока : 264 Мбайт (19%)
Выравнивание : Разделение по промежуткам
Продолжительность промежутка : 40 мс. (1,00 видеокадр)
Время предзагрузки промежутка : 500 мс.

Скриншоты

, , , , , , ,
,

_________________


Последний раз редактировалось: диманыыч (2012-01-14 20:17), всего редактировалось 3 раз(а)
[Торрент-статистика]
[Профиль]  [ЛС] 

Ратибор

Стаж: 6 лет 11 месяцев

Сообщений: 201

Репутация: 10 [+] [-]

Пост 14-Янв-2012 19:16 (спустя 54 минуты)

[Цитировать] 

Видео: Битрейт видео: ~1917 Кбит/сек
Аудио: Битрейт аудио: 448 кб/с
Сделайте более подробную информацию. Возьмите её, на крайний случай с МедиаИнфо, что ли...

_________________

[Торрент-статистика]
[Профиль]  [ЛС] 
Показать сообщения:    
Ответить на тему

Текущее время: Сегодня 13:11

Часовой пояс: GMT + 4



Вы не можете начинать темы
Вы не можете отвечать на сообщения
Вы не можете редактировать свои сообщения
Вы не можете удалять свои сообщения
Вы не можете голосовать в опросах
Вы не можете прикреплять файлы к сообщениям
Вы не можете скачивать файлы