Аленький цветочек (Лев Атаманов) [1952 г., Мультфильм, DVDRip]

Ответить на тему
 
Автор
Сообщение

3232fox ®

Пол:

Стаж: 5 лет 7 месяцев

Сообщений: 606

Репутация: 424 [+] [-]

Откуда: Крым,Россия

Пост 30-Дек-2013 18:02

[Цитировать] 

-Аленький цветочек--Год выпуска: 1952
Страна: СССР
Жанр: Мультфильм
Продолжительность: ~00:39:46--Режиссер: Лев Атаманов--Описание: С каждого дальнего путешествия купец привозил трем своим дочерям те подарки, которые они пожелают. Однажды младшая дочка Настенька попросила отца подарить ей таинственный аленький цветочек. Он сумел найти для дочери цветок на далеком острове в доме страшного чудовища, которое поймало его, но отпустило последний раз увидеться с дочерьми. Случайно узнав, каким образом у нее оказался этот подарок, Настенька сама, опередив отца, отправляется к чудовищу, чтобы вернуть аленький цветочек и попросить прощения…
--Тип релиза: DVDRip
Контейнер: AVI
Видео кодек: XviD
Аудио кодек: PCM
Видео: 720x576 ~ 1370 Кбит/с ~ PAL - 25.00fps
Аудио: PCM ~ 2 ch, 1536 Кбит/с--

Скриншоты

MI

General
Complete name : G:\видео\Alenkij.Cvetocek.1952.XviD.DVDRip-ExKinoRay.avi
Format : AVI
Format/Info : Audio Video Interleave
File size : 831 MiB
Duration : 39mn 46s
Overall bit rate : 2 920 Kbps
Writing application : Lavf52.58.0
Video
ID : 0
Format : MPEG-4 Visual
Format profile : Advanced Simple@L5
Format settings, BVOP : Yes
Format settings, QPel : No
Format settings, GMC : No warppoints
Format settings, Matrix : Default (H.263)
Codec ID : XVID
Codec ID/Hint : XviD
Duration : 39mn 46s
Bit rate : 1 370 Kbps
Width : 720 pixels
Height : 576 pixels
Display aspect ratio : 5:4
Frame rate : 25.000 fps
Standard : PAL
Color space : YUV
Chroma subsampling : 4:2:0
Bit depth : 8 bits
Scan type : Progressive
Compression mode : Lossy
Bits/(Pixel*Frame) : 0.132
Stream size : 390 MiB (47%)
Writing library : XviD 1.2.1 (UTC 2008-12-04)
Audio
ID : 1
Format : PCM
Format settings, Endianness : Little
Format settings, Sign : Signed
Codec ID : 1
Codec ID/Hint : Microsoft
Duration : 39mn 46s
Bit rate mode : Constant
Bit rate : 1 536 Kbps
Channel(s) : 2 channels
Sampling rate : 48.0 KHz
Bit depth : 16 bits
Stream size : 437 MiB (53%)
Interleave, duration : 21 ms (0.53 video frame)
[Торрент-статистика]
[Профиль]  [ЛС] 
Показать сообщения:    
Ответить на тему

Текущее время: Сегодня 13:20

Часовой пояс: GMT + 4



Вы не можете начинать темы
Вы не можете отвечать на сообщения
Вы не можете редактировать свои сообщения
Вы не можете удалять свои сообщения
Вы не можете голосовать в опросах
Вы не можете прикреплять файлы к сообщениям
Вы не можете скачивать файлы