Праздник взаперти [2012 г., Комедия, SATRemux ]

Ответить на тему
 
Автор
Сообщение

sergey36vrn ®

Стаж: 6 лет 8 месяцев

Сообщений: 1

Репутация: 3 [+] [-]

Откуда: Воронеж

Пост 27-Дек-2012 21:11

[Цитировать] 

Праздник взаперти- Русское название: Праздник взаперти
Жанр: комедия
Год выпуска: 2012
Страна: Россия-Создатели фильма
Режиссёр: Сергей Ткачев
Продюсер: Игорь Лебедев, Сергей Ткачев, Михаил Рыжих-В ролях:
Григорий Сиятвинда (Слава Белкин), Мария Шалаева (Настя Кедрова), Владимир Вдовиченков (Михаил Сорокин), Виктория Исакова (Вера Сорокина), Ольга Сутулова (Альбина) Виталий Хаев ('Штырь'), Ольга Волкова (Кира Павловна), Дмитрий Шевченко (Котиков), Владимир Ильин (Тарас Ефимыч Бунько), Роман Мадянов (босс Юрий Львович)-Описание:
Каждый Новый год актер Слава Белкин подрабатывает Дедом Морозом на частных вызовах. К несчастью, на этот раз его постоянная партнерша-Снегурочка прислала вместо себя подружку. Как гласит народная мудрость - «что криво началось, прямо не продолжится!». Уже на третьем заказе мальчик Саша умудрился запереть гостей в квартире и выбросить ключ. А между тем дедушку Мороза ждут у себя серьезные люди, которые заплатили Славе Белкину хороший аванс и приготовились встречать новогоднее чудо у себя дома...-Сборы фильма
Бюджет: $600 000
Сборы в России: $12 776-Даты выхода фильма на носителях
Мировая премьера: 27 декабря 2012
Релиз на DVD: 16 января 2013, «Кармен Видео»-Качество: SATRemux
Формат: MPEG-TS
Продолжительность: 01:15:15-Видео: кодек: MPEG-2 Video, размер кадра: 720x576, битрейт: 2754 кб/с
Аудио: перевод: оригинал, кодек: AC3 6 ch., битрейт: 448 кб/с-Источник: НТВ+ Кинорейс 5

Mediainfo

Общее
Идентификатор : 18 (0x12)
Полное имя : F:\Кинорейс 5\ПРАЗДНИК ВЗАПЕРТИ. (DOLBY, 16 9) - новогодняя ком....ts
Формат : MPEG-TS
Размер файла : 1,77 Гбайт
Продолжительность : 1 ч. 15 м.
Режим общего битрейта : Переменный
Общий поток : 3374 Кбит/сек
Видео
Идентификатор : 321 (0x141)
Идентификатор меню : 18101 (0x46B5)
Формат : MPEG Video
Версия формата : Version 2
Профиль формата : Main@Main
Параметр BVOP формата : Да
Параметр матрицы формата : Выборочная
Параметр GOP формата : Variable
Идентификатор кодека : 2
Продолжительность : 1 ч. 15 м.
Вид битрейта : Переменный
Битрейт : 2754 Кбит/сек
Максимальный битрейт : 15,0 Мбит/сек
Ширина : 720 пикселей
Высота : 576 пикселей
Соотношение сторон : 16:9
Частота кадров : 25,000 кадров/сек
Стандарт вещания : PAL
Цветовое пространство : YUV
Субдискретизация насыщенности : 4:2:0
Битовая глубина : 8 бит
Тип развёртки : Чересстрочная
Порядок развёртки : Верхнее поле первое
Метод сжатия : С потерями
Бит/(Пиксели*Кадры) : 0.266
Размер потока : 1,45 Гбайт (82%)
Аудио
Идентификатор : 421 (0x1A5)
Идентификатор меню : 18101 (0x46B5)
Формат : AC-3
Формат/Информация : Audio Coding 3
Расширение режима : CM (complete main)
Параметр Endianness формата : Big
Идентификатор кодека : 6
Продолжительность : 1 ч. 15 м.
Вид битрейта : Постоянный
Битрейт : 448 Кбит/сек
Каналы : 6 каналов
Расположение каналов : Front: L C R, Side: L R, LFE
Частота : 48,0 КГц
Битовая глубина : 16 бит
Метод сжатия : С потерями
Задержка видео : -599 мс.
Размер потока : 241 Мбайт (13%)

Отчет Bitrate Viewer

Скриншоты


-


Последний раз редактировалось: sergey36vrn (2012-12-27 22:31), всего редактировалось 4 раз(а)
[Торрент-статистика]
[Профиль]  [ЛС] 

ArtZak

Пол:

Стаж: 6 лет 11 месяцев

Сообщений: 2954

Репутация: 1364 [+] [-]

Откуда: Россия

Пост 27-Дек-2012 21:17 (спустя 6 минут)

[Цитировать] 

sergey36vrn, не вижу ни постера, ни скриншотов. Перезалейте на рекомендуемые хостинги!
P.S. Скриншоты делайте в формате *.png.
[Торрент-статистика]
[Профиль]  [ЛС] 
Показать сообщения:    
Ответить на тему

Текущее время: Сегодня 13:54

Часовой пояс: GMT + 4



Вы не можете начинать темы
Вы не можете отвечать на сообщения
Вы не можете редактировать свои сообщения
Вы не можете удалять свои сообщения
Вы не можете голосовать в опросах
Вы не можете прикреплять файлы к сообщениям
Вы не можете скачивать файлы