Трудно быть Богом (Петер Фляйшман) [1989-1990 г., Фантастика, приключения, драма, DVDRip]

Ответить на тему
 
Автор
Сообщение

awk05 ®

Пол:

Стаж: 5 лет 5 месяцев

Сообщений: 1352

Репутация: 275 [+] [-]

Откуда: Западная Украина Ривне

Пост 27-Ноя-2013 05:29

[Цитировать] 

--Трудно быть Богом / Es ist nicht leicht, ein Gott zu sein-- Год выпуска: 1989-1990
Страна: СССР | Германия | Франция | Швейцария|
Производство: Кинокомпания «Hallelujah Films»; Киностудия им. Александра Довженко; Творческое объединение «Радуга»
Жанр: фантастика, драма, приключения
Продолжительность: 02:07:56--Режиссер: Петер Фляйшман / Peter Fleischmann--Сценарий: Жан-Клод Карьер, Питер Флайшманн, Аркадий Стругацкий, Борис Стругацкий
Оператор: Павел Лебешев
Композитор: Юрген Фриц--В ролях: Эдвард Жентара (дон Румата / Антон), Александр Филиппенко (дон Рэба), Анн Готье (Кира), Кристина Кауфманн (дона Окана), Андрей Болтнев (Будах), Пьер Клементи (король), Михаил Глузский (отец Гаук), Элгуджа Бурдули (барон Пампа), Биргит Долл (Анка), Вернер Херцог (Мита / Ричард), Регимантас Адомайтис (Вейланд), Вернер Хесс (Мита)
Дублёры: Андрей Гриневич (дон Румата / Антон)--Мировая премьера: 12 сентября 1989
Релиз на DVD: 4 сентября 2008, «Парадиз Видео»--Описание: «Трудно быть богом» (нем. Es ist nicht leicht ein Gott zu sein) — фантастический фильм (1989) немецкого режиссёра Петера Фляйшмана, поставленный по одноимённой повести братьев Стругацких.
В приграничном районе между Ируканом и Арканаром многие жители видели недалеко от Луны светящуюся точку, которая быстро приближалась и превратила ночь в день. А в следующую ночь свет пропал. Это видение многие восприняли как божественный знак. Они преследовали каждого, кто в этом сомневался и при этом не подумали, что это только несовершенство зрения препятствует нам узнать в этом источник природного происхождения.
Наша галактика, далекое будущее... Молодого ученого-историка с Земли под именем храброго рыцаря Румата Эсторский высаживают на далекую планету, живущую по ужасным законам средневековья. Его цель - быть сторонним наблюдателем и изучать ход истории планеты подобной земной со стороны. Но, видя кругом чудовищную несправедливость и зверства, Румата решает взять в руки меч и возглавить восставший и запуганный народ, тем самым нарушив предполагаемый ход истории...-- --Качество: DVDRip
Формат: AVI
Видео: 688x416 (1.65:1), 25.000 fps, XviD build 72 ~1 631 kbps avg, 0.20 bit/pixel
Аудио: 48 kHz, AC3 Dolby Digital, 2/0 (L,R) ch, ~192 kbps-

МI

Расположение: E:\Films\Trudno.byt.Bogom.1989.XviD.DVDRip.avi
Имя файла: Trudno.byt.Bogom.1989.XviD.DVDRip.avi
Формат файла: .avi (AVI)
Размер файла: 1.46 GB
Длительность: 2h 7mn
Навигация по главам: Нет
Битрейт (все потоки): 1 631 Kbps
Создан при помощи: VirtualDubMod 1.5.10.3 | www.virtualdub-fr.org || (build 2550/release)
Использовалась библиотека: VirtualDubMod build 2550/release
Обложка: Отсутствует
Исполнитель: Юpист
Название: Трудно быть Богом / Es ist nicht leicht, ein Gott zu sein [1989]
Тип потока: Альбом
Жанр: Фантастика / Приключения / Драма
Тип потока: Видео
Длительность: 02:07:56
Кодек: MPEG-4 Visual
Кодек/профиль: Advanced Simple@L5
Кодек/ID: XVID
Размеры изображения: 688 x 416 (1.654)
Частота кадров: 25.000 fps
Размер потока: 1.28 GiB (88%)
Битрейт: 1 429 Kbps
Метод сжатия: Lossy
Библиотека кодирования: XviD 72
Цветовое пространство: YUV
Тип развёртки: Progressive
Глубина: 8 bits
Тип потока: Звук #1
Длительность: 02:07:55.840
Кодек: AC-3
Кодек/описание: Audio Coding 3
Кодек/ID: 2000
Частота дискретизации: 48.0 KHz
Каналов: 2 channels
Битрейт: 192 Kbps
Битрейт/тип: Constant
Размер потока: 176 MiB (12%)
Глубина: 16 bits
Метод сжатия: Lossy

Скриншоты

Знаете ли Вы, что...

Главным требованием Стругацких для съёмок фильма было наличие советского режиссера, желательно Алексея Германа, но режиссёром был утверждён Фляйшман. Из-за его несговорчивости и тяжёлого характера, Стругацкие прекратили контролировать процесс съёмок и, в итоге, получившийся фильм крайне им не понравился.
Несмотря на то, что действие фильма происходит спустя два века, в его сценах широко используется вертолёт Ми-2 совершенно нефутуристичного вида, лишь необычно окрашенный. Однако стоит отметить, что в книге упоминается именно вертолёт, а не какое-либо иное воздушное судно.
Королевский обед, красочно описанный в книге (упоминаются тонкие яства), на экране выглядит весьма скудно.
В книге Арканар описывается как портовый город с добротными домами. В фильме основные декорации — пустынный пейзаж и каменные постройки, выглядящие как руины.
Пока Фляйшман был в отъезде и улаживал в Европе дела, связанные с переносом премьеры, в это время в декорациях «Трудно быть богом» успели снять другие картины (в том числе и «Новые приключения янки при дворе короля Артура»), поэтому макет Арканара к концу съёмок был уже серьёзно подпорчен.

_________________
[Торрент-статистика]
[Профиль]  [ЛС] 

info_nowa

Пол:

Стаж: 6 лет 1 месяц

Сообщений: 530

Репутация: 223 [+] [-]

Откуда: BY

Пост 27-Ноя-2013 10:36 (спустя 5 часов)

[Цитировать] 

Где фильм Германа?

_________________
В поиске духовного просветления.
[Торрент-статистика]
[Профиль]  [ЛС] 

awk05 ®

Пол:

Стаж: 5 лет 5 месяцев

Сообщений: 1352

Репутация: 275 [+] [-]

Откуда: Западная Украина Ривне

Пост 27-Ноя-2013 12:33 (спустя 1 час 56 минут)

[Цитировать] 

Где фильм Германа?
???????

_________________
[Торрент-статистика]
[Профиль]  [ЛС] 

info_nowa

Пол:

Стаж: 6 лет 1 месяц

Сообщений: 530

Репутация: 223 [+] [-]

Откуда: BY

Пост 27-Ноя-2013 12:44 (спустя 10 минут)

[Цитировать] 

38393
Где фильм Германа?
???????
Нужен другой - http://www.kinopoisk.ru/film/40783/

_________________
В поиске духовного просветления.
[Торрент-статистика]
[Профиль]  [ЛС] 

awk05 ®

Пол:

Стаж: 5 лет 5 месяцев

Сообщений: 1352

Репутация: 275 [+] [-]

Откуда: Западная Украина Ривне

Пост 27-Ноя-2013 13:34 (спустя 50 минут)

[Цитировать] 

В 2014 году российские зрители наконец-то смогут увидеть на больших экранах долгожданную ленту режиссёра Алексея Германа «Трудно быть богом» по одноимённой повести Аркадия и Бориса Стругацких. Премьера назначена на февраль.

_________________
[Торрент-статистика]
[Профиль]  [ЛС] 

info_nowa

Пол:

Стаж: 6 лет 1 месяц

Сообщений: 530

Репутация: 223 [+] [-]

Откуда: BY

Пост 27-Ноя-2013 14:22 (спустя 48 минут)

[Цитировать] 

В 2014 году российские зрители наконец-то смогут увидеть на больших экранах долгожданную ленту
Очень рад за российскую аудиторию. Ей, к счастью, не являюсь.
Но видимо действительно ранее февраля хер увидим.

_________________
В поиске духовного просветления.
[Торрент-статистика]
[Профиль]  [ЛС] 

awk05 ®

Пол:

Стаж: 5 лет 5 месяцев

Сообщений: 1352

Репутация: 275 [+] [-]

Откуда: Западная Украина Ривне

Пост 27-Ноя-2013 15:01 (спустя 38 минут)

[Цитировать] 

согласен

_________________
[Торрент-статистика]
[Профиль]  [ЛС] 

Svar

Стаж: 6 лет

Сообщений: 11

Репутация: 15 [+] [-]

Пост 27-Ноя-2013 20:37 (спустя 5 часов)

[Цитировать] 

Хороший фильм. Благодарю!
[Торрент-статистика]
[Профиль]  [ЛС] 
Показать сообщения:    
Ответить на тему

Текущее время: Сегодня 16:11

Часовой пояс: GMT + 4



Вы не можете начинать темы
Вы не можете отвечать на сообщения
Вы не можете редактировать свои сообщения
Вы не можете удалять свои сообщения
Вы не можете голосовать в опросах
Вы не можете прикреплять файлы к сообщениям
Вы не можете скачивать файлы