Волшебная лампа Аладдина (Борис Рыцарев) [1966 г., сказка, BDRip 720p]

Ответить на тему
 
Автор
Сообщение

alien.09 ®

Пол:

Стаж: 4 года 8 месяцев

Сообщений: 753

Репутация: 562 [+] [-]

Пост 04-Июн-2013 03:04

[Цитировать] 

--Волшебная лампа Аладдина--Год выпуска: 1966
Страна: СССР
Жанр: сказка
Продолжительность: 01:18:31-Режиссер: Борис Рыцарев-В ролях: Борис Быстров, Додо Чоговадзе, Андрей Файт, Отар Коберидзе, Екатерина Верулашвили, Георгий Милляр, Гусейн Садыхов, Валентин Брылеев, Юрий Чекулаев, Отар Биланишвили-Описание: Злой колдун-магрибинец взывает к звездам, чтобы те поведали ему имя человека, что найдет волшебную лампу, способную творить чудеса. Звезды ответили: «Это Аладдин». В Багдаде живет дочь султана, красавица Будур. Всякий, кто посмеет взглянуть на нее, будет казнен.
Но своевольная и капризная принцесса заставляет Аладдина взглянуть на нее. Юноша как увидел принцессу, так сразу в нее и влюбился. А волшебная лампа со всемогущим джином, готовым выполнить любой приказ повелителя, помогла Аладдину сохранить свою любовь и справиться с Магрибинцем...-- --Тип релиза: BDRip 720p
Контейнер: MKV
Видео кодек: H264 (AVC)
Аудио кодек: AC3 (Dolby Digital)
Видео: AVC at 2720 Кбит/сек, 1280 x 528 (2.449) at 25.000 fps
Аудио: AC-3 at 448 Кбит/сек, 6 каналов, 48,0 КГц
Чаптеры: Есть

MI Report

Общее
Уникальный идентификатор : 214562169683108570530696041898980609654 (0xA16B2BB6703C6947A1567AA4BACF0E76)
Полное имя : C:\Users\Gary\Внеха\Волшебная лампа Аладдина.mkv
Формат : Matroska
Версия формата : Version 4 / Version 2
Размер файла : 1,77 Гбайт
Продолжительность : 1 ч. 18 м.
Общий поток : 3233 Кбит/сек
Название фильма : Волшебная лампа Аладдина (1966 BDRip-720p) RG BrodimCom
Дата кодирования : UTC 2013-06-03 22:15:02
Программа кодирования : mkvmerge v6.2.0 ('Promised Land') built on Apr 28 2013 12:22:01
Библиотека кодирования : XviD4PSP 6.0 / 54.29.105
Видео
Идентификатор : 1
Формат : AVC
Формат/Информация : Advanced Video Codec
Профиль формата : High@L4.1
Параметр CABAC формата : Да
Параметр ReFrames формата : 3 кадра
Идентификатор кодека : V_MPEG4/ISO/AVC
Продолжительность : 1 ч. 18 м.
Битрейт : 2720 Кбит/сек
Ширина : 1280 пикселей
Высота : 528 пикселей
Соотношение сторон : 2,40:1
Режим частоты кадров : Постоянный
Частота кадров : 25,000 кадров/сек
Цветовое пространство : YUV
Субдискретизация насыщенности : 4:2:0
Битовая глубина : 8 бит
Тип развёртки : Прогрессивная
Бит/(Пиксели*Кадры) : 0.161
Размер потока : 1,49 Гбайт (84%)
Заголовок : Волшебная лампа Аладдина (1966 BDRip-720p) RG BrodimCom
Библиотека кодирования : x264 core 128 r2216M 198a7ea
Настройки программы : cabac=1 / ref=3 / deblock=1:0:0 / analyse=0x3:0x133 / me=hex / subme=7 / psy=1 / psy_rd=1.00:0.20 / mixed_ref=1 / me_range=16 / chroma_me=1 / trellis=1 / 8x8dct=1 / cqm=0 / deadzone=21,11 / fast_pskip=1 / chroma_qp_offset=-3 / threads=8 / lookahead_threads=1 / sliced_threads=0 / nr=0 / decimate=1 / interlaced=0 / bluray_compat=0 / constrained_intra=0 / bframes=3 / b_pyramid=1 / b_adapt=2 / b_bias=0 / direct=3 / weightb=1 / open_gop=0 / weightp=2 / keyint=250 / keyint_min=25 / scenecut=40 / intra_refresh=0 / rc_lookahead=40 / rc=crf / mbtree=1 / crf=20.0 / qcomp=0.60 / qpmin=10 / qpmax=51 / qpstep=4 / ip_ratio=1.40 / aq=1:1.00
Default : Да
Forced : Нет
Аудио
Идентификатор : 2
Формат : AC-3
Формат/Информация : Audio Coding 3
Расширение режима : CM (complete main)
Параметр Endianness формата : Big
Идентификатор кодека : A_AC3
Продолжительность : 1 ч. 18 м.
Вид битрейта : Постоянный
Битрейт : 448 Кбит/сек
Каналы : 6 каналов
Расположение каналов : Front: L C R, Side: L R, LFE
Частота : 48,0 КГц
Битовая глубина : 16 бит
Метод сжатия : С потерями
Задержка видео : 59 мс.
Размер потока : 252 Мбайт (14%)
Заголовок : русский АС-3, 6 каналов
Язык : Russian
Default : Да
Forced : Нет
Меню
00:00:00.000 : en:Chapter 1
00:02:12.160 : en:Chapter 2
00:08:55.760 : en:Chapter 3
00:18:29.840 : en:Chapter 4
00:28:03.760 : en:Chapter 5
00:35:49.680 : en:Chapter 6
00:48:42.320 : en:Chapter 7
00:58:43.840 : en:Chapter 8
01:09:06.560 : en:Chapter 9
01:18:31.200 : en:Chapter 10

Скриншоты


_________________
Правообладатели, убейтесь об эту надпись.
[Торрент-статистика]
[Профиль]  [ЛС] 
Показать сообщения:    
Ответить на тему

Текущее время: Сегодня 23:44

Часовой пояс: GMT + 4



Вы не можете начинать темы
Вы не можете отвечать на сообщения
Вы не можете редактировать свои сообщения
Вы не можете удалять свои сообщения
Вы не можете голосовать в опросах
Вы не можете прикреплять файлы к сообщениям
Вы не можете скачивать файлы