Аферисты (Всеволод Шиловский) [1990 г., комедия, TVRip]

Ответить на тему
 
Автор
Сообщение

ArtZak ®

Пол:

Стаж: 6 лет 1 месяц

Сообщений: 2996

Репутация: 1363 [+] [-]

Откуда: Россия

Пост 03-Янв-2013 02:07

[Цитировать] 

Аферисты
Год выпуска: 1990
Страна: СССР
Жанр: комедия
Продолжительность: 01:18:20
Режиссер: Всеволод Шиловский
Производство: Кинотоварищество на Таганке- -В ролях:
Мамука Кикалейшвили, Михаил Кокшенов, Станислав Садальский, Всеволод Шиловский, Римма Маркова, Нина Русланова, Михаил Пресняков, Вероника Изотова, Евгений Весник, Баадур Цуладзе, Лев Борисов, Роман Филиппов, Павел Винник, Владислав Демченко, Алексей Елизаветский, Евгений Москалёв, Вячеслав Горбунчиков, Владимир Ферапонтов, Фёдор Полевич, Нина Маслова, Георгий Куликов, Иван Турченков, Константин Карельских, Чеслав Сушкевич, Михаил Бочаров, Фёдор Валиков, Виктор Лазарев, Наталья Крачковская, Виктор Махмутов, Николай Сморчков, Ерванд Арзуманян, Татьяна Новицкая, Михаил Бирбраер, Андрей Щербович-Вечер, Игорь Класс, Мария Барабанова
Описание:
Трое очень симпатичных, смешных и совсем не страшных негодяев собираются промышлять древними иконами. Для успеха им пришлось побывать и художниками, и лекторами, и святыми отцами...
Доп. информация: В раздаче присутствуют банеры с названием фильма (после рекламных вставок) и анонсом следующих передач.
Сэмпл: http://multi-up.com/811595
Тип релиза: TVRip
Контейнер: MPEG
Видео кодек: MPEG2
Аудио кодек: MPEG Audio
Видео: MPEG 2, 720x576 (4:3), 25.000 fps, 9 282 Kbps (0.845 bit/pixel)
Аудио: MP2, 48.0 KHz, 2 ch, 192 Kbps, CBR

MI

Код:
Общее
Полное имя : G:\TORENT2/AFERISTIh.1990.mpg
Формат : MPEG-PS
Размер файла : 5,00 Гбайт
Продолжительность : 1 ч. 18 м.
Общий поток : 9138 Кбит/сек
Видео
Идентификатор : 224 (0xE0)
Формат : MPEG Video
Версия формата : Version 2
Профиль формата : Main@Main
Параметр BVOP формата : Да
Параметр матрицы формата : По умолчанию
Продолжительность : 1 ч. 18 м.
Вид битрейта : Переменный
Битрейт : 8764 Кбит/сек
Номинальный битрейт : 9282 Кбит/сек
Ширина : 720 пикс.
Высота : 576 пикс.
Соотношение сторон : 4:3
Частота кадров : 25,000 кадр/сек
Стандарт вещания : PAL
Цветовое пространство : YUV
Подвыборка цветности : 4:2:0
Битовая глубина : 8 бит
Тип развёртки : Чересстрочная
Порядок развёртки : Верхнее поле первое
Метод сжатия : С потерями
Бит/(Пиксели*Кадры) : 0.845
Размер потока : 4,80 Гбайт (96%)
Аудио
Идентификатор : 192 (0xC0)
Формат : MPEG Audio
Версия формата : Version 1
Профиль формата : Layer 2
Продолжительность : 1 ч. 18 м.
Вид битрейта : Постоянный
Битрейт : 192 Кбит/сек
Каналы : 2 канала
Частота : 48,0 КГц
Метод сжатия : С потерями
Размер потока : 108 Мбайт (2%)

Скриншоты




Последний раз редактировалось: ArtZak (2013-01-03 15:42), всего редактировалось 2 раз(а)
[Торрент-статистика]
[Профиль]  [ЛС] 

simbais

Пол:

Стаж: 5 лет 11 месяцев

Сообщений: 647

Репутация: 184 [+] [-]

Откуда: Санкт-Петербург

Пост 03-Янв-2013 02:15 (спустя 8 минут)

[Цитировать] 

Обалденный фильм. Огромное спасибо!

_________________
[Торрент-статистика]
[Профиль]  [ЛС] 

ArtZak ®

Пол:

Стаж: 6 лет 1 месяц

Сообщений: 2996

Репутация: 1363 [+] [-]

Откуда: Россия

Пост 03-Янв-2013 02:32 (спустя 16 минут)

[Цитировать] 

simbais, качай на здоровье!
[Торрент-статистика]
[Профиль]  [ЛС] 

Fler1970

Стаж: 5 лет 8 месяцев

Сообщений: 2

Репутация: 0 [+] [-]

Пост 22-Мар-2013 22:17 (спустя 2 месяца 19 дней)

[Цитировать] 

Извините, не подскажите, а почему этот фильм не перекидывается на флэш-носители? На компе фильм идёт.
[Торрент-статистика]
[Профиль]  [ЛС] 

ArtZak ®

Пол:

Стаж: 6 лет 1 месяц

Сообщений: 2996

Репутация: 1363 [+] [-]

Откуда: Россия

Пост 24-Мар-2013 03:10 (спустя 1 день 4 часа)

[Цитировать] 

Fler1970, слишком большой по-размеру...
[Торрент-статистика]
[Профиль]  [ЛС] 

info_nowa

Пол:

Стаж: 6 лет

Сообщений: 530

Репутация: 223 [+] [-]

Откуда: BY

Пост 24-Мар-2013 10:53 (спустя 7 часов)

[Цитировать] 

Fler1970, вероятно причина в следующем:
Максимально возможный размер файла для тома FAT32 — ~ 4 ГБ — 4 294 967 295 байт (в FAT32 под размер файла отведено 4 байта. 4 байта - это 32 бита. 232-1 — 4 294 967 295 байт. Поэтому размер файла не может быть больше этого значения, иначе не получится указать его длину.
Этот файл объемом 5 369 466 880 байт, следовательно чуть более, чем может себе позволить FAT32.
Отформатируйте флэш-накопитель в файловой системе NTFS. Это позволит Вам оперировать файлами чуть менее, чем 2^64 байт.
Или разделите свой файл на два куска.

_________________
В поиске духовного просветления.
[Торрент-статистика]
[Профиль]  [ЛС] 

Fler1970

Стаж: 5 лет 8 месяцев

Сообщений: 2

Репутация: 0 [+] [-]

Пост 24-Мар-2013 11:28 (спустя 35 минут)

[Цитировать] 

У нас накопитель 8 Г. Фильм по любому должен уместиться. Сейчас попробую отформатировать Хотя я несколько раз его уже форматировала. Мне казалась что в семёрке автоматически форматируется в NTFS. Сейчас попробую поискать как...
Комп пишет что-то наподобие:" Диск заполнен, вставьте другой".
[Торрент-статистика]
[Профиль]  [ЛС] 

info_nowa

Пол:

Стаж: 6 лет

Сообщений: 530

Репутация: 223 [+] [-]

Откуда: BY

Пост 24-Мар-2013 12:16 (спустя 48 минут)

[Цитировать] 

Fler1970, пробуйте, не получится - пишите, поможем.

_________________
В поиске духовного просветления.
[Торрент-статистика]
[Профиль]  [ЛС] 
Показать сообщения:    
Ответить на тему

Текущее время: Сегодня 06:00

Часовой пояс: GMT + 4



Вы не можете начинать темы
Вы не можете отвечать на сообщения
Вы не можете редактировать свои сообщения
Вы не можете удалять свои сообщения
Вы не можете голосовать в опросах
Вы не можете прикреплять файлы к сообщениям
Вы не можете скачивать файлы