Кин-дза-дза! (Георгий Данелия) [1986, СССР, фантастика, драма, комедия, DVDRip]

Ответить на тему
 
Автор
Сообщение

diim ®

Пол:

Стаж: 2 года 10 месяцев

Сообщений: 1034

Репутация: 112 [+] [-]

Пост 19-Авг-2012 14:45

[Цитировать] 

Кин-дза-дза! Год выпуска: 1986
Страна: СССР
Студии: Мосфильм
Жанр: фантастика, драма, комедия
Продолжительность: 02:07:26 (1:03:32 + 1:03:54)
Субтитры: русский, английский (отдельно)
Режиссер: Георгий Данелия
В ролях: Станислав Любшин, Леван Габриадзе, Евгений Леонов, Юрий Яковлев, Анатолий Серенко, Ольга Машная, Лев Перфилов, Ирина Шмелёва, Игорь Боголюбов, Валентин Букин, Юрий Воронков, Николай Гаро, Олег Матвеев, Харий Швейц, Валентин Голубенко, Георгий Данелия, Вероника Изотова, Юрий Наумцев, Владимир Разумовский, Нина Русланова, Нина Тер-Осипян, Александра Дорохина, Геннадий Иванов, Олеся Иванова, Игорь Кан, Александр Литовкин, Виктор Маренков, Анатолий Мартынов, Виктор Махмутов, Татьяна Новицкая, Татьяна Перфильева, Людмила Солоденко, Владимир Фёдоров, Валерий Фролова, Галина Данелия-Юркова, Геннадий Ялович...
Описание: Москва, 1980-е годы. В центре города, на Калининском проспекте, босоногий человек в рваном пальто обращается к прохожим со странной просьбой: "Скажите номер вашей планеты в тентуре, или хотя бы номер галактики в спирали". Случайные прохожие, которыми волей судьбы оказались прораб Владимир Николаевич Машков (дядя Вова) и грузинский студент Гедеван (Скрипач), вступают с ним в разговор, в ходе которого незнакомец показывает небольшой прибор - "машинку перемещения". Прораб, считая, что перед ним - сумасшедший, протягивает к "машинке" руку и, несмотря на уверения незнакомца в том, что надо знать, как ей пользоваться, нажимает на ней случайно выбранную кнопку. В ту же секунду дядя Вова и Скрипач оказываются одни - в песчаной пустыне под палящим солнцем. Вначале герои думают, что они попали в Каракумы на Земле, но позже, встретившись с местными жителями, узнают, что оказались в галактике Кин-дза-дза на планете Плюк...
Тип релиза: DVDRip
Контейнер: AVI
Видео: 704x528 (4:3), 25 fps, XviD MPEG-4 Visual ~ 1496 kbps avg, 0.161 bit/pixel
Аудио: 48 kHz, MP3, 2 ch, 128.00 kbps Русский
Дополнительно: Английские субтитры, Русские субтитры

MediaInfo

Общее
Полное имя : Kin-dza-dza!.1986\Kin-dza-dza!.1986.DVDRip\Kin-dza-dza.1986.1s.avi
Формат : AVI
Формат/Информация : Audio Video Interleave
Размер файла : 742 Мбайт
Продолжительность : 1 ч. 3 м.
Общий поток : 1634 Кбит/сек
Программа кодирования : VirtualDubMod 1.5.10.3 | www.virtualdub-fr.org || (build 2550/release)
Библиотека кодирования : VirtualDubMod build 2550/release
Видео
Идентификатор : 0
Формат : MPEG-4 Visual
Профиль формата : Advanced Simple@L5
Параметр BVOP формата : 1
Параметр QPel формата : Нет
Параметр GMC формата : Без точки перехода
Параметр матрицы формата : Выборочная
Идентификатор кодека : XVID
Идентификатор кодека/Подсказка : XviD
Продолжительность : 1 ч. 3 м.
Битрейт : 1496 Кбит/сек
Ширина : 704 пикселя
Высота : 528 пикселей
Соотношение сторон : 4:3
Частота кадров : 25,000 кадров/сек
Цветовое пространство : YUV
Субдискретизация насыщенности : 4:2:0
Битовая глубина : 8 бит
Тип развёртки : Прогрессивная
Метод сжатия : С потерями
Бит/(Пиксели*Кадры) : 0.161
Размер потока : 680 Мбайт (92%)
Библиотека кодирования : XviD 1.2.1 (UTC 2008-12-04)
Аудио
Идентификатор : 1
Формат : MPEG Audio
Версия формата : Version 1
Профиль формата : Layer 3
Идентификатор кодека : 55
Идентификатор кодека/Подсказка : MP3
Продолжительность : 1 ч. 3 м.
Вид битрейта : Постоянный
Битрейт : 128 Кбит/сек
Каналы : 2 канала
Частота : 48,0 КГц
Метод сжатия : С потерями
Размер потока : 58,2 Мбайт (8%)
Выравнивание : Соединение по промежуткам
Продолжительность промежутка : 40 мс. (1,00 видеокадр)
Время предзагрузки промежутка : 504 мс.
Библиотека кодирования : LAME3.99

Скриншоты

[Торрент-статистика]
[Профиль]  [ЛС] 
Показать сообщения:    
Ответить на тему

Текущее время: Сегодня 16:04

Часовой пояс: GMT + 4



Вы не можете начинать темы
Вы не можете отвечать на сообщения
Вы не можете редактировать свои сообщения
Вы не можете удалять свои сообщения
Вы не можете голосовать в опросах
Вы не можете прикреплять файлы к сообщениям
Вы не можете скачивать файлы