Трест, который лопнул / Сезон:1 /Серия 1-3 из 3 (Александр Павловский) [1982 г., Музыкальный, комедия, приключения, SATRip H.264]

Ответить на тему
 
Автор
Сообщение

awk05 ®

Пол:

Стаж: 5 лет 5 месяцев

Сообщений: 1352

Репутация: 275 [+] [-]

Откуда: Западная Украина Ривне

Пост 30-Авг-2014 03:10

[Цитировать] 

--Трест, который лопнул --Выпущено: СССР, Одесская киностудия
Год выпуска: 1982
Жанр: Музыкальный, комедия, приключения
Сезон/Серия: Сезон:1 /Серия 1-3 из 3
Продолжительность: 3 х ~ 01:04:00
Субтитры: отсутствуют--Режиссёр: Александр Павловский--Актеры: Регимантас Адомайтис, Николай Караченцов, Михаил Срибный, Виктор Ильичёв, Юрий Волович, Леонид Куравлёв, Борис Новиков, Михаил Светин, Владимир Басов, Павел Винник, Лев Перфилов, Геннадий Ялович, Михаил Муромов, Ирина Понаровская, Виталий Шаповалов, Всеволод Абдулов, Борис Боровский, Юрий Мажуга, Елена Аминова, Тамара Яценко, Анатолий Падука, Олег Федулов, Евгений Кулешов, Вадим Александров, Юрий Вотяков, Владимир Коровкин, Нина Ильина, Ингрид Андринь, Франческа Переплетчикова, Александр Павловский, Станислав Пеньков--Описание фильма: Мюзикл в 3-х сериях, созданный по мотивам юмористических рассказов О'Генри "Поросячья этика", "Коридоры власти", "Супружество как точная наука".
Приключения двух очаровательных мошенников, живущих за счет доверчивых простаков. Не все и не всегда им удается так, как они задумали первоначально, но зато сколько выдумки в их остроумном поиске хлеба насущного! Блистательный актерский ансамбль успешно помогает донести до зрителя мягкий юмор О'Генри. В фильме звучат песни на стихи Наума Олева и Леонида Филатова.--Качество видео: SATRip
Формат видео: MKV
Видео кодек: AVC (High@L4.1)
Аудио кодек: AC-3
Видео: AVC, 704x566 (4:3), 25.000 fps, 3 319 Kbps (0.333 bit/pixel)
Аудио: AC-3, 48.0 KHz, 2 ch, 192 Kbps, CBR, 16 bits [Русский] -- --

Кадры из фильма



Тех. данные (MI)

Код:
Общее
Уникальный идентификатор                 : 228913673547872757002828471697117130953 (0xAC372B7BB81531EFB9E0736D7B09B0C9)
Полное имя                               : G:\тест\Трест, который лопнул\Трест, который лопнул-1.mkv
Формат                                   : Matroska
Версия формата                           : Version 2
Размер файла                             : 1,60 Гбайт
Продолжительность                        : 1 ч. 3 м.
Общий поток                              : 3582 Кбит/сек
Дата кодирования                         : UTC 2014-06-07 09:21:37
Программа кодирования                    : mkvmerge v5.2.0 ('I can't explain') built on Dec 18 2011 18:12:03
Библиотека кодирования                   : libebml v1.2.3 + libmatroska v1.3.0
Видео
Идентификатор                            : 1
Формат                                   : AVC
Формат/Информация                        : Advanced Video Codec
Профиль формата                          : High@L4.1
Параметр CABAC формата                   : Да
Параметр ReFrames формата                : 15 кадров
Идентификатор кодека                     : V_MPEG4/ISO/AVC
Продолжительность                        : 1 ч. 3 м.
Битрейт                                  : 3319 Кбит/сек
Ширина                                   : 704 пикселя
Высота                                   : 566 пикселей
Соотношение сторон                       : 4:3
Соотношение сторон в оригинале           : 4:3
Режим частоты кадров                     : Постоянный
Частота кадров                           : 25,000 кадров/сек
Цветовое пространство                    : YUV
Субдискретизация насыщенности            : 4:2:0
Битовая глубина                          : 8 бит
Тип развёртки                            : Прогрессивная
Бит/(Пиксели*Кадры)                      : 0.333
Размер потока                            : 1,48 Гбайт (93%)
Библиотека кодирования                   : x264 core 130 r2273 b3065e6
Настройки программы                      : cabac=1 / ref=15 / deblock=1:-2:-2 / analyse=0x3:0x133 / me=umh / subme=11 / psy=1 / psy_rd=1.30:0.30 / mixed_ref=1 / me_range=24 / chroma_me=1 / trellis=2 / 8x8dct=1 / cqm=0 / deadzone=21,11 / fast_pskip=1 / chroma_qp_offset=-4 / threads=12 / lookahead_threads=3 / sliced_threads=0 / nr=0 / decimate=1 / interlaced=0 / bluray_compat=0 / constrained_intra=0 / bframes=10 / b_pyramid=2 / b_adapt=2 / b_bias=0 / direct=1 / weightb=1 / open_gop=0 / weightp=2 / keyint=250 / keyint_min=25 / scenecut=40 / intra_refresh=0 / rc=crf / mbtree=0 / crf=17.7 / qcomp=0.65 / qpmin=0 / qpmax=55 / qpstep=4 / ip_ratio=1.30 / pb_ratio=1.20 / aq=1:1.00
Язык                                     : English
Default                                  : Да
Forced                                   : Нет
Основные цвета                           : BT.601 PAL
Характеристики трансфера                 : BT.470 System B, BT.470 System G
Коэффициенты матрицы                     : BT.601
Аудио
Идентификатор                            : 2
Формат                                   : AC-3
Формат/Информация                        : Audio Coding 3
Расширение режима                        : CM (complete main)
Параметр Endianness формата              : Big
Идентификатор кодека                     : A_AC3
Продолжительность                        : 1 ч. 3 м.
Вид битрейта                             : Постоянный
Битрейт                                  : 192 Кбит/сек
Каналы                                   : 2 канала
Расположение каналов                     : Front: L R
Частота                                  : 48,0 КГц
Битовая глубина                          : 16 бит
Метод сжатия                             : С потерями
Размер потока                            : 87,7 Мбайт (5%)
Язык                                     : Russian
Default                                  : Да
Forced                                   : Нет

_________________
[Торрент-статистика]
[Профиль]  [ЛС] 
Показать сообщения:    
Ответить на тему

Текущее время: Сегодня 15:58

Часовой пояс: GMT + 4



Вы не можете начинать темы
Вы не можете отвечать на сообщения
Вы не можете редактировать свои сообщения
Вы не можете удалять свои сообщения
Вы не можете голосовать в опросах
Вы не можете прикреплять файлы к сообщениям
Вы не можете скачивать файлы