Волк с Уолл-стрит / The Wolf of Wall Street (Мартин Скорсезе / Martin Scorsese) [2013 г., драма, комедия, криминал, биография, DVDScreener] VO [VANO]

Ответить на тему
 
Автор
Сообщение

leon024 ®

Пол:

Стаж: 7 лет 8 месяцев

Сообщений: 1142

Репутация: 634 [+] [-]

Откуда: Россия

Пост 03-Дек-2013 17:10

[Цитировать] 

Волк с Уолл-стрит / The Wolf of Wall Street- Год выпуска: 2013
Страна: США / Appian Way, EMJAG Productions, Red Granite Pictures, Sikelia Productions
Жанр: драма, комедия, криминал, биография
Продолжительность: 02:59:49
Перевод: Любительский (одноголосый) [VANO]
Cубтитры: нет
Оригинальная аудиодорожка: нет
Режиссер: Мартин Скорсезе / Martin Scorsese- -В ролях:
Леонардо ДиКаприо, Джона Хилл, Марго Робби, Мэттью МакКонахи, Кайл Чандлер, Роб Райнер, Джон Фавро, Жан Дюжарден, Ши Уигхэм, Спайк Джонз, Джон Бернтал, Кристин Милиоти, Итан Сапли, Мэдисон МакКинли, Джоанна Ламли и др.
Описание:
Нью-йоркский финансист Джордан Белфорт в конце 80-х годов основал одну из крупнейших брокерских компаний, но через десять лет его осудили за мошенничество с ценными бумагами. С самых высот финансового мира Белфорду приходиться опуститься на самое дно, он борется с алкоголизмом и наркотической зависимостью, но после тюремного заключения бывший брокер переосмысливает свою жизнь, начинает читать лекции и выпускает книгу.
Качество: DVDScreener | Сэмпл
Формат: AVI
Видео: MPEG4, XviD, 720x304 (2.35:1), 23.976 fps, 887 Kbps (0.169 bit/pixel)
Аудио: AC-3, 48.0 KHz, 2 ch, 192 Kbps, CBR

MI

Код:
General
Complete name                            : E:\downloads\Wolk.s.Uol.Street.2013.L1.DVDScr.1400MB.avi
Format                                   : AVI
Format/Info                              : Audio Video Interleave
File size                                : 1.37 GiB
Duration                                 : 2h 59mn
Overall bit rate                         : 1 088 Kbps
Writing application                      : VirtualDubMod 1.5.10.2 (build 2540/release)
Writing library                          : VirtualDubMod build 2540/release
Video
ID                                       : 0
Format                                   : MPEG-4 Visual
Format profile                           : Advanced Simple@L5
Format settings, BVOP                    : 2
Format settings, QPel                    : No
Format settings, GMC                     : No warppoints
Format settings, Matrix                  : Custom
Codec ID                                 : XVID
Codec ID/Hint                            : XviD
Duration                                 : 2h 59mn
Bit rate                                 : 887 Kbps
Width                                    : 720 pixels
Height                                   : 304 pixels
Display aspect ratio                     : 2.35:1
Frame rate                               : 23.976 fps
Color space                              : YUV
Chroma subsampling                       : 4:2:0
Bit depth                                : 8 bits
Scan type                                : Progressive
Compression mode                         : Lossy
Bits/(Pixel*Frame)                       : 0.169
Stream size                              : 1.11 GiB (81%)
Writing library                          : XviD 1.2.1 (UTC 2008-12-04)
Audio
ID                                       : 1
Format                                   : AC-3
Format/Info                              : Audio Coding 3
Mode extension                           : CM (complete main)
Format settings, Endianness              : Big
Codec ID                                 : 2000
Duration                                 : 2h 59mn
Bit rate mode                            : Constant
Bit rate                                 : 192 Kbps
Channel count                            : 2 channels
Channel positions                        : Front: L R
Sampling rate                            : 48.0 KHz
Bit depth                                : 16 bits
Compression mode                         : Lossy
Stream size                              : 247 MiB (18%)
Alignment                                : Split accross interleaves
Interleave, duration                     : 42 ms (1.00 video frame)
Interleave, preload duration             : 500 ms

Скриншоты


[Торрент-статистика]
[Профиль]  [ЛС] 
Показать сообщения:    
Ответить на тему

Текущее время: Сегодня 22:59

Часовой пояс: GMT + 4



Вы не можете начинать темы
Вы не можете отвечать на сообщения
Вы не можете редактировать свои сообщения
Вы не можете удалять свои сообщения
Вы не можете голосовать в опросах
Вы не можете прикреплять файлы к сообщениям
Вы не можете скачивать файлы