Бегущий в лабиринте / The Maze Runner (Уэс Болл / Wes Ball) [2014 г., фантастика, триллер, ужасы, CamRip]

Ответить на тему
 
Автор
Сообщение

ArtZak ®

Пол:

Стаж: 5 лет 1 месяц

Сообщений: 3008

Репутация: 1363 [+] [-]

Откуда: Россия

Пост 21-Сен-2014 23:01

[Цитировать] 

Бегущий в лабиринте / The Maze Runner
«Только не останавливайся»
- Страна: США | 20th Century Fox, Gotham Group, The, Temple Hill Entertainment
Жанр: фантастика, триллер, ужасы
Год выпуска: 2014
Продолжительность: 01:45:11
Перевод: Профессиональный (дублированный)
Cубтитры: нет
Режиссер: Уэс Болл / Wes Ball- -В ролях:
Дилан О’Брайэн, Кая Скоделарио, Уилл Поултер, Томас Сэнгстер, Патришия Кларксон, Ки Хонг Ли, Амл Амин, Дон МакМанус, Джо Адлер, Блейк Купер и др.
Описание:
По мотивам романа Джеймса Дашнера. Томас просыпается в лифте в странном состоянии: он ничего не помнит, кроме своего имени. Герой оказывается среди 60 подростков, вынужденных выживать в замкнутом пространстве. Группа тех, кто приспособился к правилам, живёт в месте, названном «Приют». Они кормятся тем, что удается вырастить на земле, и пытаются найти выход из лабиринта, окружающего их новый дом. Герои уже не помышляют о том, чтобы выбраться, но появление нового участника - странной девочки - даёт надежду на скорое спасение.
Качество видео: CamRip | Сэмпл
Формат видео: AVI
Видео: MPEG4, XviD, 704x320 (2.2:1), 30.000 fps, 1 716 Kbps (0.254 bit/pixel)
Аудио: MP3, 48.0 KHz, 2 ch, 192 Kbps, CBR

MediaInfo

Код:
General
Complete name                            : C:\Downloads\The.Maze.Runner.2014.D.CAMRip.Kerob.avi
Format                                   : AVI
Format/Info                              : Audio Video Interleave
File size                                : 1.41 GiB
Duration                                 : 1h 45mn
Overall bit rate                         : 1 919 Kbps
Writing application                      : VirtualDubMod 1.5.10.2 (build 2540/release)
Writing library                          : VirtualDubMod build 2540/release
Video
ID                                       : 0
Format                                   : MPEG-4 Visual
Format profile                           : Advanced Simple@L5
Format settings, BVOP                    : 2
Format settings, QPel                    : No
Format settings, GMC                     : No warppoints
Format settings, Matrix                  : Default (MPEG)
Codec ID                                 : XVID
Codec ID/Hint                            : XviD
Duration                                 : 1h 45mn
Bit rate                                 : 1 716 Kbps
Width                                    : 704 pixels
Height                                   : 320 pixels
Display aspect ratio                     : 2.2:1
Frame rate                               : 30.000 fps
Color space                              : YUV
Chroma subsampling                       : 4:2:0
Bit depth                                : 8 bits
Scan type                                : Progressive
Compression mode                         : Lossy
Bits/(Pixel*Frame)                       : 0.254
Stream size                              : 1.26 GiB (89%)
Writing library                          : XviD 1.2.1 (UTC 2008-12-04)
Audio
ID                                       : 1
Format                                   : MPEG Audio
Format version                           : Version 1
Format profile                           : Layer 3
Mode                                     : Joint stereo
Codec ID                                 : 55
Codec ID/Hint                            : MP3
Duration                                 : 1h 45mn
Bit rate mode                            : Constant
Bit rate                                 : 192 Kbps
Channel count                            : 2 channels
Sampling rate                            : 48.0 KHz
Compression mode                         : Lossy
Stream size                              : 144 MiB (10%)
Alignment                                : Aligned on interleaves
Interleave, duration                     : 33 ms (1.00 video frame)
Interleave, preload duration             : 504 ms

Скриншоты

[Торрент-статистика]
[Профиль]  [ЛС] 
Показать сообщения:    
Ответить на тему

Текущее время: Сегодня 01:51

Часовой пояс: GMT + 4



Вы не можете начинать темы
Вы не можете отвечать на сообщения
Вы не можете редактировать свои сообщения
Вы не можете удалять свои сообщения
Вы не можете голосовать в опросах
Вы не можете прикреплять файлы к сообщениям
Вы не можете скачивать файлы