Уцелевший / Lone Survivor (Питер Берг / Peter Berg) [2013 г., военный, боевик, драма, Screener 720p] DVO [Студия "Paradox​"] | AVO (Xixidok) + Original (ENG) + Subs (Rus, Eng)

Ответить на тему
 
Автор
Сообщение

TiZAr ®

Пол:

Стаж: 7 лет 5 месяцев

Сообщений: 823

Репутация: 1160 [+] [-]

Откуда: Россия

Пост 18-Янв-2014 16:23

[Цитировать] 

Уцелевший / Lone Survivor
«Live to Tell the Story»
- Год выпуска: 2013
Страна: США
Жанр: военный, боевик, драма
Продолжительность: 02:00:47
Перевод: Любительский (двухголосый) [Студия "Paradox"] (Присутствует ненормативная лексика)
Перевод №2: Любительский (одноголосый) (Xixidok)
Субтитры: русские, английские
Оригинальная аудиодорожка: английская
Режиссер: Питер Берг / Peter Berg
Производство: Company 3, Envision Entertainment Corporation, Film 44, Herrick Entertainment, Hollywood Studios International, Spikings Entertainment, Weed Road Pictures- -В ролях:
Марк Уолберг, Тейлор Китч, Эмиль Хирш, Бен Фостер, Эрик Бана, Александр Людвиг, Джерри Феррара, Скотт Элрод, Дэн Билзериан, Роэн Чанд, Али Сулиман, Юсуф Азами, Джош Берри, Фрэнк Пауэрс, Рич Тинг, Кори Лардж и др.
Описание:
Фильм о разведывательной операции в Афганистане, которая превратилась в бойню. 28 июня 2005 года вертолёт спецназа ВВС США высадил четырех "морских котиков" в афганской провинции Кунар. Их миссией было скрытно вести наблюдение в зоне активности боевиков группировки Ахмад Шаха. Высадка прошла успешно, но дальше всё пошло не по плану. В результате неравного боя чудом выжил лишь один американский солдат - Маркус Латрел, по книге которого и создан фильм.
Качество: Screener 720p | Сэмпл
Формат: MKV
Видео: AVC, 1280x544 (2.35:1), 23.976 fps, 3 815 Kbps (0.229 bit/pixel)
Аудио #1: AC-3, 48.0 KHz, 2 ch, 192 Kbps, CBR (Russian) - [Студия "Paradox"]
Аудио #2: MP3, 44.1 KHz, 2 ch, 192 Kbps, CBR (Russian) - (Xixidok)
Аудио #3: AC-3, 48.0 KHz, 6 ch, 448 Kbps, CBR (English)

MI

Код:
General
Unique ID                                : 225325228869696375689489438017521365458 (0xA9840F803E969A8CA717D5D78672B1D2)
Complete name                            : E:\downloads\LONE.SURVIVOR.2013.HDTVRip.720p.mkv
Format                                   : Matroska
Format version                           : Version 4 / Version 2
File size                                : 4.00 GiB
Duration                                 : 2h 0mn
Overall bit rate mode                    : Variable
Overall bit rate                         : 4 741 Kbps
Movie name                               : LONE.SURVIVOR.2013.HDTVRip.720p - HDREACTOR.ORG
Encoded date                             : UTC 2014-01-13 02:49:44
Writing application                      : mkvmerge v6.6.0 ('The Edge Of The In Between') built on Dec  1 2013 17:55:00
Writing library                          : libebml v1.3.0 + libmatroska v1.4.1
Video
ID                                       : 1
Format                                   : AVC
Format/Info                              : Advanced Video Codec
Format profile                           : High@L4.1
Format settings, CABAC                   : Yes
Format settings, ReFrames                : 3 frames
Codec ID                                 : V_MPEG4/ISO/AVC
Duration                                 : 2h 0mn
Bit rate mode                            : Variable
Bit rate                                 : 3 815 Kbps
Maximum bit rate                         : 40.0 Mbps
Width                                    : 1 280 pixels
Height                                   : 544 pixels
Display aspect ratio                     : 2.35:1
Frame rate mode                          : Constant
Frame rate                               : 23.976 fps
Color space                              : YUV
Chroma subsampling                       : 4:2:0
Bit depth                                : 8 bits
Scan type                                : Progressive
Bits/(Pixel*Frame)                       : 0.229
Stream size                              : 3.22 GiB (80%)
Title                                    : English
Writing library                          : x264 core 140 r2377 1ca7bb9
Encoding settings                        : cabac=1 / ref=4 / deblock=1:-1:-1 / analyse=0x3:0x113 / me=umh / subme=9 / psy=1 / psy_rd=1.00:0.15 / mixed_ref=1 / me_range=18 / chroma_me=1 / trellis=2 / 8x8dct=1 / cqm=0 / deadzone=21,11 / fast_pskip=0 / chroma_qp_offset=-3 / threads=6 / lookahead_threads=1 / sliced_threads=0 / slices=4 / nr=0 / decimate=1 / interlaced=0 / bluray_compat=0 / constrained_intra=0 / bframes=3 / b_pyramid=1 / b_adapt=2 / b_bias=0 / direct=1 / weightb=1 / open_gop=0 / weightp=0 / keyint=23 / keyint_min=1 / scenecut=40 / intra_refresh=0 / rc_lookahead=23 / rc=crf / mbtree=1 / crf=19.0 / qcomp=0.60 / qpmin=10 / qpmax=51 / qpstep=4 / vbv_maxrate=40000 / vbv_bufsize=30000 / crf_max=0.0 / nal_hrd=vbr / filler=0 / ip_ratio=1.40 / aq=1:1.00
Language                                 : English
Default                                  : Yes
Forced                                   : No
Color primaries                          : BT.709
Transfer characteristics                 : BT.709
Matrix coefficients                      : BT.709
Audio #1
ID                                       : 2
Format                                   : AC-3
Format/Info                              : Audio Coding 3
Mode extension                           : CM (complete main)
Format settings, Endianness              : Big
Codec ID                                 : A_AC3
Duration                                 : 2h 0mn
Bit rate mode                            : Constant
Bit rate                                 : 192 Kbps
Channel count                            : 2 channels
Channel positions                        : Front: L R
Sampling rate                            : 48.0 KHz
Bit depth                                : 16 bits
Compression mode                         : Lossy
Stream size                              : 166 MiB (4%)
Title                                    : Russian AC-3 Paradox (48 KHz; 192 kbps; 2 ch; 16 bits )
Language                                 : Russian
Default                                  : Yes
Forced                                   : Yes
Audio #2
ID                                       : 3
Format                                   : MPEG Audio
Format version                           : Version 1
Format profile                           : Layer 3
Codec ID                                 : A_MPEG/L3
Codec ID/Hint                            : MP3
Duration                                 : 2h 0mn
Bit rate mode                            : Constant
Bit rate                                 : 192 Kbps
Channel count                            : 2 channels
Sampling rate                            : 44.1 KHz
Compression mode                         : Lossy
Stream size                              : 166 MiB (4%)
Title                                    : Russian MP-3 Xixidok (44.1 KHz; 192 kbps; 2 ch )
Language                                 : Russian
Default                                  : No
Forced                                   : No
Audio #3
ID                                       : 4
Format                                   : AC-3
Format/Info                              : Audio Coding 3
Mode extension                           : CM (complete main)
Format settings, Endianness              : Big
Codec ID                                 : A_AC3
Duration                                 : 2h 0mn
Bit rate mode                            : Constant
Bit rate                                 : 448 Kbps
Channel count                            : 6 channels
Channel positions                        : Front: L C R, Side: L R, LFE
Sampling rate                            : 48.0 KHz
Bit depth                                : 16 bits
Compression mode                         : Lossy
Stream size                              : 387 MiB (9%)
Title                                    : English AC-3 (48.0 KHz; 448 kbps; 6 ch; 16 bits)
Language                                 : English
Default                                  : No
Forced                                   : No
Text #1
ID                                       : 5
Format                                   : UTF-8
Codec ID                                 : S_TEXT/UTF8
Codec ID/Info                            : UTF-8 Plain Text
Title                                    : Russian (SRT)
Language                                 : Russian
Default                                  : Yes
Forced                                   : No
Text #2
ID                                       : 6
Format                                   : UTF-8
Codec ID                                 : S_TEXT/UTF8
Codec ID/Info                            : UTF-8 Plain Text
Title                                    : English (SRT)
Language                                 : English
Default                                  : No
Forced                                   : No
Text #3
ID                                       : 7
Format                                   : UTF-8
Codec ID                                 : S_TEXT/UTF8
Codec ID/Info                            : UTF-8 Plain Text
Title                                    : English (SRT)
Language                                 : English
Default                                  : No
Forced                                   : No

Скриншот подтверждения Screener

Скриншоты



_________________
Не стоит обращать внимания на отсутствие сидов на моих раздачах. Все мои релизы мультитрекерные - нет сидов, включите DHT.
За релизами в HD качестве обращайтесь в личку, либо отписывайтесь в теме.
[Торрент-статистика]
[Профиль]  [ЛС] 
Показать сообщения:    
Ответить на тему

Текущее время: Сегодня 18:39

Часовой пояс: GMT + 4



Вы не можете начинать темы
Вы не можете отвечать на сообщения
Вы не можете редактировать свои сообщения
Вы не можете удалять свои сообщения
Вы не можете голосовать в опросах
Вы не можете прикреплять файлы к сообщениям
Вы не можете скачивать файлы