Интерстеллар / Interstellar (Кристофер Нолан) [2014 г., фантастика, боевик, детектив, приключения, DVDScreener] [Чистый звук]

Ответить на тему
 
Автор
Сообщение

nova1980 ®

Пол:

Стаж: 5 лет

Сообщений: 820

Репутация: 523 [+] [-]

Откуда: Одесса Мама

Пост 16-Ноя-2014 22:28

[Цитировать] 

-Интерстеллар / Interstellar-Год выпуска: 2014
Страна: США, Великобритания / Legendary Pictures, Lynda Obst Productions, Paramount Pictures, Warner Bros.
Жанр: фантастика, боевик, детектив, приключения
Продолжительность: 02:49:00
Перевод: Профессиональный (полное дублирование) [Чистый звук]-Режиссер: Кристофер Нолан-В ролях:
Мэттью МакКонахи, Энн Хэтэуэй, Джессика Честейн, Мэтт Дэймон, Уэс Бентли, Кейси Аффлек, Майкл Кейн, Тофер Грэйс, Маккензи Фой, Джон Литгоу, Эллен Бёрстин-Описание:
Когда засуха приводит человечество к продовольственному кризису, коллектив исследователей и учёных отправляется сквозь червоточину (которая предположительно соединяет области пространства-времени через большое расстояние) в путешествие, чтобы превзойти прежние ограничения для космических путешествий человека и переселить человечество на другую планету.- -Примечание: Присутствует около 7 минут вставок звука с TS!-Тип релиза: DVDScreener | Сэмпл
Контейнер: AVI
Видео кодек: XviD
Аудио кодек: AC3 (Dolby Digital)
Видео: MPEG4, XviD, 624x272 (2.25:1), 29.970 fps, 1 018 Kbps (0.200 bit/pixel)
Аудио: AC-3, 48.0 KHz, 2 ch, 128 Kbps, CBR

MI

Код:
General
Complete name               : C:\Users\ZzzzZ\Downloads\Interstellar.2014.D.DVDScr.1400MB.avi
Format                      : AVI
Format/Info                 : Audio Video Interleave
File size                   : 1.37 GiB
Duration                    : 2h 49mn
Overall bit rate            : 1 157 Kbps
Movie name                  : Interstellar.2014.D.1400MB.rustorrents.org.avi - Line
Director                    : 3imeMachi9e&Kolbas
Writing application         : VirtualDubMod 1.5.10.3 | www.virtualdub-fr.org || (build 2550/release)
Copyright                   : UNIONGANG&RUSTORRENTS
Video
ID                          : 0
Format                      : MPEG-4 Visual
Format profile              : Advanced Simple@L5
Format settings, BVOP       : 2
Format settings, QPel       : No
Format settings, GMC        : No warppoints
Format settings, Matrix     : Default (MPEG)
Codec ID                    : XVID
Codec ID/Hint               : XviD
Duration                    : 2h 49mn
Bit rate                    : 1 018 Kbps
Width                       : 624 pixels
Height                      : 272 pixels
Display aspect ratio        : 2.25:1
Frame rate                  : 29.970 fps
Color space                 : YUV
Chroma subsampling          : 4:2:0
Bit depth                   : 8 bits
Scan type                   : Progressive
Compression mode            : Lossy
Bits/(Pixel*Frame)          : 0.200
Stream size                 : 1.20 GiB (88%)
Writing library             : XviD 1.2.1 (UTC 2008-12-04)
Audio
ID                          : 1
Format                      : AC-3
Format/Info                 : Audio Coding 3
Mode extension              : CM (complete main)
Format settings, Endianness : Big
Codec ID                    : 2000
Duration                    : 2h 49mn
Bit rate mode               : Constant
Bit rate                    : 128 Kbps
Channel(s)                  : 2 channels
Channel positions           : Front: L R
Sampling rate               : 48.0 KHz
Bit depth                   : 16 bits
Compression mode            : Lossy
Stream size                 : 155 MiB (11%)
Alignment                   : Split accross interleaves
Interleave, duration        : 33 ms (1.00 video frame)
Interleave, preload duratio : 500 ms

Скриншоты


_________________
Мои Раздачи
[Торрент-статистика]
[Профиль]  [ЛС] 

ArtZak

Пол:

Стаж: 5 лет 1 месяц

Сообщений: 3008

Репутация: 1363 [+] [-]

Откуда: Россия

Пост 02-Фев-2015 12:33 (спустя 2 месяца 15 дней)

[Цитировать] 

Обновил на DVDScreener [Чистый звук]
[Торрент-статистика]
[Профиль]  [ЛС] 

info_nowa

Пол:

Стаж: 5 лет

Сообщений: 531

Репутация: 223 [+] [-]

Откуда: BY

Пост 03-Фев-2015 09:52 (спустя 21 час)

[Цитировать] 

бновил на DVDScreener [Чистый звук]
это что значит? можно смотреть или ждать?

_________________
В поиске духовного просветления.
[Торрент-статистика]
[Профиль]  [ЛС] 

Волк

Пол:

Стаж: 5 лет 1 месяц

Сообщений: 689

Репутация: 292 [+] [-]

Откуда: Армения

Пост 03-Фев-2015 11:25 (спустя 1 час 33 минуты)

[Цитировать] 

49487
бновил на DVDScreener [Чистый звук]
это что значит? можно смотреть или ждать?
Можно но подажди!
[Торрент-статистика]
[Профиль]  [ЛС] 
Показать сообщения:    
Ответить на тему

Текущее время: Сегодня 14:43

Часовой пояс: GMT + 4



Вы не можете начинать темы
Вы не можете отвечать на сообщения
Вы не можете редактировать свои сообщения
Вы не можете удалять свои сообщения
Вы не можете голосовать в опросах
Вы не можете прикреплять файлы к сообщениям
Вы не можете скачивать файлы