Приключения Паддингтона / Paddington (Пол Кинг) [2014 г., комедия, приключения, семейный, SATRip]

Ответить на тему
 
Автор
Сообщение

opt10 ®

Пол:

Стаж: 3 года 9 месяцев

Сообщений: 9

Репутация: 10 [+] [-]

Откуда: Донецкая обл.

Пост 24-Апр-2015 16:37

[Цитировать] 

Приключения Паддингтона / Paddington
Год выпуска: 2014
Страна: Великобритания, Франция
Жанр: комедия, приключения, семейный
Продолжительность: 95 мин. / 01:35
Перевод: Профессиональный (полное дублирование)
Режиссер: Пол Кинг
В ролях: Бен Уишоу, Николь Кидман, Хью Бонневилль, Салли Хокинс, Джули Уолтерс, Мадлен Харрис, Сэмюэл Джослин, Джим Бродбент, Питер Капальди, Имелда Стонтон
Описание: Познакомьтесь, это медведь по имени Паддингтон из дремучего Перу. Он приехал в Лондон, чтобы обрести семью и стать настоящим английским джентльменом. На пути к этой цели его ожидают невероятные приключения, полные юмора и опасностей.

Тип релиза: SATRip
Контейнер: MPEG
Видео кодек: MPEG2
Аудио кодек: MPEG Audio
Видео: 3367 Кбит/сек, 720x576 (16:9), MPEG Video
Аудио: Russian, 192кбит/сек, 48,0 КГц, MPEGAudio (Version 1)

Скриншоты










Последний раз редактировалось: opt10 (2015-04-25 10:01), всего редактировалось 2 раз(а)
[Торрент-статистика]
[Профиль]  [ЛС] 

nova1980

Пол:

Стаж: 5 лет

Сообщений: 820

Репутация: 523 [+] [-]

Откуда: Одесса Мама

Пост 25-Апр-2015 01:39 (спустя 9 часов)

[Цитировать] 

opt10, Допустимый формат скриншотов, только PNG.
Имя файла
ПРИКЛЮЧЕНИЯ ПАДДИНГТОНА.ts 2.38 GB (2564801280)
А в раздаче SATRip. Чему верить?

_________________
Мои Раздачи


Последний раз редактировалось: nova1980 (2015-04-25 01:45), всего редактировалось 1 раз
[Торрент-статистика]
[Профиль]  [ЛС] 

Пост 25-Апр-2015 01:39 (спустя 20 секунд)

Топик был перенесен из форума Фильмы 2012-2014 в форум Зарубежное кино, экранки (CamRip, TS, Screener)
nova1980
 

opt10 ®

Пол:

Стаж: 3 года 9 месяцев

Сообщений: 9

Репутация: 10 [+] [-]

Откуда: Донецкая обл.

Пост 25-Апр-2015 10:05 (спустя 8 часов)

[Цитировать] 

nova1980, А в инструкциях написано что JPG допустим
Скришоты должны быть с расширением jpg или png.
Внимание: Плеер Light Alloy делает скриншоты только с avi, а InterVideo WinDVD делает скриншоты только с ДВД
Рекомендуем заливать скриншоты с помощью программы Image Uploader, очень просто и удобно !
А вот с форматом (MPEG-TS, видеокодеки MPEG-2 Video ) не могу определиться запись с HD канала НТВ +
[Торрент-статистика]
[Профиль]  [ЛС] 

Alligator84

Пол:

Стаж: 2 года 3 месяца

Сообщений: 14

Репутация: 38 [+] [-]

Пост 25-Апр-2015 17:17 (спустя 7 часов)

[Цитировать] 

Тип релиза: SATRip к экранкам не относится
[Торрент-статистика]
[Профиль]  [ЛС] 

nova1980

Пол:

Стаж: 5 лет

Сообщений: 820

Репутация: 523 [+] [-]

Откуда: Одесса Мама

Пост 25-Апр-2015 20:57 (спустя 3 часа)

[Цитировать] 

opt10, Вот правила именно данного раздела! Покажите где там написано о формате jpg ??? Не путайте инструкцию по созданию скриншотов, с правилами данного раздела!
Для полных данных о видео файле воспользуйтесь MediaInfo и добавьте эти данные в тему!
Alligator84, Действия Администрации трекера не обсуждаются с пользователями!

_________________
Мои Раздачи
[Торрент-статистика]
[Профиль]  [ЛС] 

opt10 ®

Пол:

Стаж: 3 года 9 месяцев

Сообщений: 9

Репутация: 10 [+] [-]

Откуда: Донецкая обл.

Пост 26-Апр-2015 18:11 (спустя 21 час)

[Цитировать] 

Спасибо за советы, но MediaInfo тип релиза не определяет.

MediaInfo

Общее
Идентификатор : 6 (0x6)
Полное имя : ПРИКЛЮЧЕНИЯ ПАДДИНГТОНА.ts
Формат : MPEG-TS
Размер файла : 2,39 Гбайт
Продолжительность : 1 ч. 31 м.
Режим общего битрейта : Переменный
Общий поток : 3746 Кбит/сек
Видео
Идентификатор : 321 (0x141)
Идентификатор меню : 31001 (0x7919)
Формат : MPEG Video
Версия формата : Version 2
Профиль формата : Main@Main
Параметр BVOP формата : Да
Параметр матрицы формата : Выборочная
Параметр GOP формата : M=3, N=15
Структура изображения : Frame
Идентификатор кодека : 2
Продолжительность : 1 ч. 31 м.
Вид битрейта : Переменный
Битрейт : 3367 Кбит/сек
Максимальный битрейт : 15,0 Мбит/сек
Ширина : 720 пикселей
Высота : 576 пикселей
Соотношение сторон : 16:9
Частота кадров : 25,000 кадров/сек
Стандарт вещания : PAL
Цветовое пространство : YUV
Субдискретизация насыщенности : 4:2:0
Битовая глубина : 8 бит
Тип развёртки : Чересстрочная
Порядок развёртки : Верхнее поле первое
Метод сжатия : С потерями
Бит/(Пиксели*Кадры) : 0.325
Временной код первого кадра : 21:35:09:17
Оригинал временного кода : Group of pictures header
GOP, открыто/закрыто : Открыто
Размер потока : 2,15 Гбайт (90%)
Аудио
Идентификатор : 401 (0x191)
Идентификатор меню : 31001 (0x7919)
Формат : MPEG Audio
Версия формата : Version 1
Профиль формата : Layer 2
Идентификатор кодека : 4
Продолжительность : 1 ч. 31 м.
Вид битрейта : Постоянный
Битрейт : 192 Кбит/сек
Каналы : 2 канала
Частота : 48,0 КГц
Метод сжатия : С потерями
Задержка видео : 42 мс.
Размер потока : 125 Мбайт (5%)
Язык : Russian
Язык, дополнительно : Clean effects
[Торрент-статистика]
[Профиль]  [ЛС] 

opt10 ®

Пол:

Стаж: 3 года 9 месяцев

Сообщений: 9

Репутация: 10 [+] [-]

Откуда: Донецкая обл.

Пост 26-Апр-2015 18:21 (спустя 10 минут)

[Цитировать] 

УЭФ: Дядя Вова, цапу надо крутить, цапу.
ДЯДЯ ВОВА: На! Сам делай!
УЭФ: Мне нельзя, я чатланин.
ДЯДЯ ВОВА: Уйди отсюда! Как советовать, так все чатлане, как работать, так…
[Торрент-статистика]
[Профиль]  [ЛС] 

nova1980

Пол:

Стаж: 5 лет

Сообщений: 820

Репутация: 523 [+] [-]

Откуда: Одесса Мама

Пост 26-Апр-2015 22:55 (спустя 4 часа)

[Цитировать] 

opt10, Тогда делаем по другому! Надо изменить
ПРИКЛЮЧЕНИЯ ПАДДИНГТОНА.ts
На ПРИКЛЮЧЕНИЯ ПАДДИНГТОНА.SATRip или оставить просто название фильма....

_________________
Мои Раздачи
[Торрент-статистика]
[Профиль]  [ЛС] 
Показать сообщения:    
Ответить на тему

Текущее время: Сегодня 00:19

Часовой пояс: GMT + 4



Вы не можете начинать темы
Вы не можете отвечать на сообщения
Вы не можете редактировать свои сообщения
Вы не можете удалять свои сообщения
Вы не можете голосовать в опросах
Вы не можете прикреплять файлы к сообщениям
Вы не можете скачивать файлы