Типа копы / Let's Be Cops (Люк Гринфилд / Luke Greenfield) [2014 г., комедия, криминал, CamRip]

Ответить на тему
 
Автор
Сообщение

nova1980 ®

Пол:

Стаж: 9 лет 5 месяцев

Сообщений: 790

Репутация: 532 [+] [-]

Откуда: Одесса Мама

Пост 02-Сен-2014 01:04

[Цитировать] 

Типа копы / Let's Be Cops
«Левые копы. Реальные проблемы»
- Год выпуска: 2014
Производство: США | 20th Century Fox Film Corporation, Genre Films, WideAwake
Жанр: комедия, криминал
Продолжительность: 01:39:32
Перевод: Профессиональный (дублированный)
Режиссер: Люк Гринфилд / Luke Greenfield- -В главных ролях:
Брайан Оерли, Нельсон Бонилла, Л. Уоррен Янг, Джошуа Ормонд, Ребекка Коон, Наташа Леггеро, Том Мардиросян, Джон Лажуа, Энди Гарсиа, Джеймс Д’Арси, Нина Добрев, Роб Риггл, Джейк Джонсон, Дэймон Уайанс мл. и др.
Описание:
Два так и не повзрослевших неудачника собираются на костюмированную вечеринку, не придумав ничего более оригинального, кроме как нарядиться полицейскими. Этот наряд приносит неожиданный успех и приятные бонусы. Ряженные в полицейской форме пробуют вкус власти и уже не могут от неё отказаться, втягиваясь всё сильнее. И вскоре они находят настоящее приключение на свои лжеполицейские ягодицы - теперь им придётся познать и обратную сторону полицейской службы, когда оружие начинает стрелять, и за тебя берётся настоящий криминал.
Тип релиза: CamRip | Сэмпл
Контейнер: AVI
Видео кодек: XviD
Аудио кодек: AC3 (Dolby Digital)
Видео: MPEG4, XviD, 720x304 (2.35:1), 23.976 fps, 1 829 Kbps (0.348 bit/pixel)
Аудио: AC-3, 48.0 KHz, 2 ch, 128 Kbps, CBR

MI

Код:
General
Complete name                            : C:\Users\tiZar\Downloads\T1pa.K0py.2014.D.CAMRip.1400MB.avi
Format                                   : AVI
Format/Info                              : Audio Video Interleave
File size                                : 1.37 GiB
Duration                                 : 1h 39mn
Overall bit rate                         : 1 966 Kbps
Writing application                      : VirtualDubMod 1.5.10.2 (build 2540/release)
Writing library                          : VirtualDubMod build 2540/release
Video
ID                                       : 0
Format                                   : MPEG-4 Visual
Format profile                           : Advanced Simple@L5
Format settings, BVOP                    : 2
Format settings, QPel                    : No
Format settings, GMC                     : No warppoints
Format settings, Matrix                  : Default (MPEG)
Codec ID                                 : XVID
Codec ID/Hint                            : XviD
Duration                                 : 1h 39mn
Bit rate                                 : 1 829 Kbps
Width                                    : 720 pixels
Height                                   : 304 pixels
Display aspect ratio                     : 2.35:1
Frame rate                               : 23.976 fps
Color space                              : YUV
Chroma subsampling                       : 4:2:0
Bit depth                                : 8 bits
Scan type                                : Progressive
Compression mode                         : Lossy
Bits/(Pixel*Frame)                       : 0.348
Stream size                              : 1.27 GiB (93%)
Writing library                          : XviD 1.2.1 (UTC 2008-12-04)
Audio
ID                                       : 1
Format                                   : AC-3
Format/Info                              : Audio Coding 3
Mode extension                           : CM (complete main)
Format settings, Endianness              : Big
Codec ID                                 : 2000
Duration                                 : 1h 39mn
Bit rate mode                            : Constant
Bit rate                                 : 128 Kbps
Channel count                            : 2 channels
Channel positions                        : Front: L R
Sampling rate                            : 48.0 KHz
Bit depth                                : 16 bits
Compression mode                         : Lossy
Stream size                              : 91.1 MiB (7%)
Alignment                                : Split accross interleaves
Interleave, duration                     : 42 ms (1.00 video frame)
Interleave, preload duration             : 500 ms

Скриншоты


_________________
Мои Раздачи
[Торрент-статистика]
[Профиль]  [ЛС] 

ArtZak

Пол:

Стаж: 9 лет 6 месяцев

Сообщений: 2826

Репутация: 1366 [+] [-]

Откуда: Россия

Пост 23-Сен-2014 07:00 (спустя 21 день)

[Цитировать] 

nova1980, подправил твое оформление под свой шаблон. Не против?
[Торрент-статистика]
[Профиль]  [ЛС] 
Показать сообщения:    
Ответить на тему

Текущее время: Сегодня 20:18

Часовой пояс: GMT + 4



Вы не можете начинать темы
Вы не можете отвечать на сообщения
Вы не можете редактировать свои сообщения
Вы не можете удалять свои сообщения
Вы не можете голосовать в опросах
Вы не можете прикреплять файлы к сообщениям
Вы не можете скачивать файлы