Воздушный маршал / Non-Stop (Хауме Кольет-Серра / Jaume Collet-Serra) [2014 г., детектив, триллер, боевик, TeleSynch]

Ответить на тему
 
Автор
Сообщение

TiZAr ®

Пол:

Стаж: 3 года 3 месяца

Сообщений: 836

Репутация: 1157 [+] [-]

Откуда: Россия

Пост 11-Апр-2014 00:53

[Цитировать] 

Воздушный маршал / Non-Stop
«Захват самолёта - это только начало»
- Год выпуска: 2014
Страна: Великобритания, Франция, США
Жанр: детектив, триллер, боевик
Продолжительность: 01:45:53
Перевод: Профессиональный (полное дублирование)
Cубтитры: нет
Оригинальная аудиодорожка: нет
Режиссер: Хауме Кольет-Серра / Jaume Collet-Serra
Производство: Anton Capital Entertainment (ACE), Canal+ [fr], LOVEFiLM International, Silver Pictures, Studio Canal, TF1, TF1 Films Production- -В ролях:
Лиам Нисон, Джулианна Мур, Лупита Нионго, Мишель Докери, Энсон Маунт, Лайнас Роуч, Кори Столл, Бар Пали, Скут МакНэйри, Джон Абрахамс, Куинн Маккоулган, Кори Антонио Хоукинс, Кэтерин Крил, Джейсон Батлер Харнер, Лиз Томас, Фрэнк Дил, Нэйт Паркер, Александра Светличная, Финис Эйвери, Омар Метуолли, Джош Боденхамер и др.
Описание:
Федеральный воздушный маршал Билл Маркс летит из Нью-Йорка в Лондон. Во время полёта на его телефон приходит сообщение, что каждые 20 минут будет погибать один из пассажиров лайнера, если на указанный в сообщении банковский счет не поступят 150 миллинов долларов. Счет оформлен на самого Маркса, и спецслужбы тут же объявляют на него охоту. Маршал в ловушке, нужно срочно искать выход из ситуации.
Сравнение скриншотов TS vs TS V2
Качество: TeleSynch | Сэмпл
Формат: AVI
Видео: 720x304 (2.37:1), 29.970 fps, XviD build 73 ~1649 kbps avg, 0.25 bit/pixel
Аудио: 48 kHz, AC3 Dolby Digital, 2/0 (L,R) ch, ~192.00 kbps avg

MI

Код:
General
Complete name                            : Vozdushnyj.marshal.2014.D.TS.V2.avi
Format                                   : AVI
Format/Info                              : Audio Video Interleave
File size                                : 1.37 GiB
Duration                                 : 1h 45mn
Overall bit rate                         : 1 853 Kbps
Writing application                      : VirtualDubMod 1.5.10.3 | www.virtualdub-fr.org || (build 2550/release)
Writing library                          : VirtualDubMod build 2550/release
Video
ID                                       : 0
Format                                   : MPEG-4 Visual
Format profile                           : Advanced Simple@L5
Format settings, BVOP                    : 2
Format settings, QPel                    : No
Format settings, GMC                     : No warppoints
Format settings, Matrix                  : Default (H.263)
Codec ID                                 : XVID
Codec ID/Hint                            : XviD
Duration                                 : 1h 45mn
Bit rate                                 : 1 649 Kbps
Width                                    : 720 pixels
Height                                   : 304 pixels
Display aspect ratio                     : 2.35:1
Frame rate                               : 29.970 fps
Color space                              : YUV
Chroma subsampling                       : 4:2:0
Bit depth                                : 8 bits
Scan type                                : Progressive
Compression mode                         : Lossy
Bits/(Pixel*Frame)                       : 0.251
Stream size                              : 1.22 GiB (89%)
Writing library                          : XviD 73
Audio
ID                                       : 1
Format                                   : AC-3
Format/Info                              : Audio Coding 3
Mode extension                           : CM (complete main)
Format settings, Endianness              : Big
Codec ID                                 : 2000
Duration                                 : 1h 45mn
Bit rate mode                            : Constant
Bit rate                                 : 192 Kbps
Channel count                            : 2 channels
Channel positions                        : Front: L R
Sampling rate                            : 48.0 KHz
Bit depth                                : 16 bits
Compression mode                         : Lossy
Stream size                              : 145 MiB (10%)
Alignment                                : Split accross interleaves
Interleave, duration                     : 33 ms (1.00 video frame)
Interleave, preload duration             : 500 ms

Скриншоты



_________________
Не стоит обращать внимания на отсутствие сидов на моих раздачах. Все мои релизы мультитрекерные - нет сидов, включите DHT.
За релизами в HD качестве обращайтесь в личку, либо отписывайтесь в теме.
[Торрент-статистика]
[Профиль]  [ЛС] 
Показать сообщения:    
Ответить на тему

Текущее время: Сегодня 14:44

Часовой пояс: GMT + 4



Вы не можете начинать темы
Вы не можете отвечать на сообщения
Вы не можете редактировать свои сообщения
Вы не можете удалять свои сообщения
Вы не можете голосовать в опросах
Вы не можете прикреплять файлы к сообщениям
Вы не можете скачивать файлы