Она / Her (Спайк Джонс / Spike Jonze) [2013 г., мелодрама, драма, фантастика, DVDScreener] MVO [Гараж Дубляж] + Original (ENG)

Ответить на тему
 
Автор
Сообщение

TiZAr ®

Пол:

Стаж: 3 года 3 месяца

Сообщений: 836

Репутация: 1157 [+] [-]

Откуда: Россия

Пост 02-Мар-2014 05:21

[Цитировать] 

Она / Her- Год выпуска: 2013
Страна: США / Annapurna Pictures
Жанр: мелодрама, драма, фантастика
Продолжительность: 02:06:45
Перевод: Любительский (многоголосый закадровый) [Гараж Дубляж]
Cубтитры: нет
Оригинальная аудиодорожка: английская
Режиссер: Спайк Джонс / Spike Jonze- -В ролях:
Хоакин Феникс, Скарлетт Йоханссон, Эми Адамс, Руни Мара, Оливия Уайлд, Крис Прэтт, Мэтт Летчер, Портия Даблдэй, Лаура Кай Чен, Спайк Джонс и др.
Описание:
Теодор — одинокий писатель, покупает новую техническую разработку — операционную систему, призванную исполнять любое желание пользователя. К удивлению Теодора, вскоре между ним и операционной системой возникает роман.
Релиз от:

Качество: DVDScreener | Сэмпл
Формат: AVI
Видео: XviD, 720x368 (1.957), 29.970 fps, 1 000 Kbps (0.126 bit/pixel)
Аудио #1: AC-3, 48.0 KHz, 2 ch, 384 Kbps, CBR
Аудио #2: AC-3, 48.0 KHz, 2 ch, 384 Kbps, CBR

MI

Код:
General
Complete name                            : E:\downloads\Her.2013.DVDSCR ГаражДубляж.avi
Format                                   : AVI
Format/Info                              : Audio Video Interleave
File size                                : 1.58 GiB
Duration                                 : 2h 6mn
Overall bit rate                         : 1 786 Kbps
Video
ID                                       : 0
Format                                   : xvid
Codec ID                                 : xvid
Duration                                 : 2h 6mn
Bit rate                                 : 1 000 Kbps
Width                                    : 720 pixels
Height                                   : 368 pixels
Display aspect ratio                     : 1.957
Frame rate                               : 29.970 fps
Bits/(Pixel*Frame)                       : 0.126
Stream size                              : 906 MiB (56%)
Audio #1
ID                                       : 1
Format                                   : AC-3
Format/Info                              : Audio Coding 3
Mode extension                           : CM (complete main)
Format settings, Endianness              : Big
Codec ID                                 : 2000
Duration                                 : 2h 6mn
Bit rate mode                            : Constant
Bit rate                                 : 384 Kbps
Channel count                            : 2 channels
Channel positions                        : Front: L R
Sampling rate                            : 48.0 KHz
Bit depth                                : 16 bits
Compression mode                         : Lossy
Stream size                              : 348 MiB (21%)
Alignment                                : Aligned on interleaves
Interleave, duration                     : 32 ms (0.96 video frame)
Audio #2
ID                                       : 2
Format                                   : AC-3
Format/Info                              : Audio Coding 3
Mode extension                           : CM (complete main)
Format settings, Endianness              : Big
Codec ID                                 : 2000
Duration                                 : 2h 6mn
Bit rate mode                            : Constant
Bit rate                                 : 384 Kbps
Channel count                            : 2 channels
Channel positions                        : Front: L R
Sampling rate                            : 48.0 KHz
Bit depth                                : 16 bits
Compression mode                         : Lossy
Stream size                              : 348 MiB (21%)
Alignment                                : Aligned on interleaves
Interleave, duration                     : 32 ms (0.96 video frame)

Скриншоты




_________________
Не стоит обращать внимания на отсутствие сидов на моих раздачах. Все мои релизы мультитрекерные - нет сидов, включите DHT.
За релизами в HD качестве обращайтесь в личку, либо отписывайтесь в теме.
[Торрент-статистика]
[Профиль]  [ЛС] 
Показать сообщения:    
Ответить на тему

Текущее время: Сегодня 15:38

Часовой пояс: GMT + 4



Вы не можете начинать темы
Вы не можете отвечать на сообщения
Вы не можете редактировать свои сообщения
Вы не можете удалять свои сообщения
Вы не можете голосовать в опросах
Вы не можете прикреплять файлы к сообщениям
Вы не можете скачивать файлы