Охотники за сокровищами / The Monuments Men (Джордж Клуни / George Clooney) [2014 г., военный, драма, комедия, CamRip]

Ответить на тему
 
Автор
Сообщение

TiZAr ®

Пол:

Стаж: 3 года 3 месяца

Сообщений: 836

Репутация: 1157 [+] [-]

Откуда: Россия

Пост 23-Фев-2014 04:07

[Цитировать] 

Охотники за сокровищами / The Monuments Men
«Крупнейшее ограбление в истории искусства»
- Год выпуска: 2014
Страна: США, Германия / Smoke House, Studio Babelsberg
Жанр: военный, драма, комедия
Продолжительность: 01:46:34
Перевод: Профессиональный (полное дублирование)
Cубтитры: нет
Оригинальная аудиодорожка: нет
Режиссер: Джордж Клуни / George Clooney- -В ролях:
Джордж Клуни, Мэтт Дэймон, Билл Мюррей, Джон Гудман, Жан Дюжарден, Боб Бэлабан, Хью Бонневилль, Кейт Бланшетт, Димитрий Леонидас, Юстус фон Донаньи и др.
Описание:
Фильм основан на реальных событиях — величайшей охоте на сокровища в истории. Во время Второй мировой войны команда из искусствоведов и хранителей музеев объединяется, чтобы спасти известные произведения искусства, похищенные нацистами, прежде чем те успеют их уничтожить.
Качество: CamRip | Сэмпл
Формат: AVI
Видео: MPEG4, XviD, 720x352 (2.045), 29.970 fps, 1 700 Kbps (0.224 bit/pixel)
Аудио: MP3, 44.1 KHz, 2 ch, 128 Kbps, CBR

MI

Код:
General
Complete name                            : E:\downloads\Ohotniki.za.Sokrovishami.2014.D.CAMRip.1400MB.avi
Format                                   : AVI
Format/Info                              : Audio Video Interleave
File size                                : 1.37 GiB
Duration                                 : 1h 46mn
Overall bit rate                         : 1 840 Kbps
Writing application                      : VirtualDubMod 1.5.10.2 (build 2540/release)
Writing library                          : VirtualDubMod build 2540/release
Video
ID                                       : 0
Format                                   : MPEG-4 Visual
Format profile                           : Advanced Simple@L5
Format settings, BVOP                    : 2
Format settings, QPel                    : No
Format settings, GMC                     : No warppoints
Format settings, Matrix                  : Default (MPEG)
Codec ID                                 : XVID
Codec ID/Hint                            : XviD
Duration                                 : 1h 46mn
Bit rate                                 : 1 700 Kbps
Width                                    : 720 pixels
Height                                   : 352 pixels
Display aspect ratio                     : 2.045
Frame rate                               : 29.970 fps
Color space                              : YUV
Chroma subsampling                       : 4:2:0
Bit depth                                : 8 bits
Scan type                                : Progressive
Compression mode                         : Lossy
Bits/(Pixel*Frame)                       : 0.224
Stream size                              : 1.27 GiB (92%)
Writing library                          : XviD 73
Audio
ID                                       : 1
Format                                   : MPEG Audio
Format version                           : Version 1
Format profile                           : Layer 3
Codec ID                                 : 55
Codec ID/Hint                            : MP3
Duration                                 : 1h 46mn
Bit rate mode                            : Constant
Bit rate                                 : 128 Kbps
Channel count                            : 2 channels
Sampling rate                            : 44.1 KHz
Compression mode                         : Lossy
Stream size                              : 97.6 MiB (7%)
Alignment                                : Split accross interleaves
Interleave, duration                     : 33 ms (1.00 video frame)
Interleave, preload duration             : 500 ms

_________________
Не стоит обращать внимания на отсутствие сидов на моих раздачах. Все мои релизы мультитрекерные - нет сидов, включите DHT.
За релизами в HD качестве обращайтесь в личку, либо отписывайтесь в теме.
[Торрент-статистика]
[Профиль]  [ЛС] 
Показать сообщения:    
Ответить на тему

Текущее время: Сегодня 00:21

Часовой пояс: GMT + 4



Вы не можете начинать темы
Вы не можете отвечать на сообщения
Вы не можете редактировать свои сообщения
Вы не можете удалять свои сообщения
Вы не можете голосовать в опросах
Вы не можете прикреплять файлы к сообщениям
Вы не можете скачивать файлы