Иммануил / Immanue (Лал Джозе / Lal Jose) [2013 г., драма, HQRip] MVO [Red Media]

Ответить на тему
 
Автор
Сообщение

jons3 ®

Стаж: 2 года 2 месяца

Сообщений: 157

Репутация: 66 [+] [-]

Пост 22-Окт-2014 20:54

[Цитировать] 

Иммануил / ImmanueГод выпуска: 2013
Страна: Индия
Жанр: драма
Продолжительность: 02:19:41
Перевод: Профессиональный (многоголосый, закадровый) [Red Media] (ТК Индия ТВ]
Режиссер: Лал Джозе / Lal Jose
В ролях: Маммутти, Фахад Фасил, Рину Мэтьюс, Салим Кумар
Описание: Главный герой, Иммануил, живет простой, скромной жизнью и всей семьей они мечтают лишь о своем доме. Его сынишка даже нарисовал этот дом, который Иммануил держит перед глазами. Вот только в маленьком издательстве, где он работает, дела совсем плохи, а зарплату не платят уже 3 месяца. В один день сотрудники просто обнаруживают, что их начальник пропал и это означает полный крах. Но поскольку Иммануил с начальником были друзьями, тот оставляет ему письмо с извинениями, часть денег, которые ему должен, и телефон, по которому Имманиул может позвонить и получить работу. Вот только все не так просто, ведь он уже в летах, а на эту работу берут лишь до 25 лет...

Тип релиза: HQRip
Контейнер: AVI
Видео кодек: XviD
Аудио кодек: AC3 (Dolby Digital)
Видео: 720x304 (2.37:1), 24.000 fps, XviD build 50 ~1288 kbps avg, 0.25 bit/pixel
Аудио: 48 kHz, AC3 Dolby Digital, 2/0 (L,R) ch, ~192 kbps
Риппер, синхрон. звука: soso4eg

Скриншоты

MI

General
Complete name : E:\[ИНДИЯ]\Immanuil.2013.HDRip.XviD-soso4eg.avi
Format : AVI
Format/Info : Audio Video Interleave
File size : 1.45 GiB
Duration : 2h 19mn
Overall bit rate : 1 491 Kbps
Movie name : Immanuel.2013.HDRip.XviD-soso4eg
Director : soso4eg
Writing application : VirtualDubMod 1.5.10.3 | http://www.virtualdub-fr.org || (build 2550/release)
Writing library : VirtualDubMod build 2550/release
Original source form/Name : Malayalam
Copyright : специально для BitTorrent трекер RuTracker.org (ex torrents.ru)
Comment : пер. Red Media
Video
ID : 0
Format : MPEG-4 Visual
Format profile : Advanced Simple@L5
Format settings, BVOP : 1
Format settings, QPel : No
Format settings, GMC : No warppoints
Format settings, Matrix : Default (H.263)
Codec ID : XVID
Codec ID/Hint : XviD
Duration : 2h 19mn
Bit rate : 1 290 Kbps
Width : 720 pixels
Height : 304 pixels
Display aspect ratio : 2.35:1
Frame rate : 24.000 fps
Color space : YUV
Chroma subsampling : 4:2:0
Bit depth : 8 bits
Scan type : Progressive
Compression mode : Lossy
Bits/(Pixel*Frame) : 0.245
Stream size : 1.26 GiB (86%)
Writing library : XviD 1.2.1 (UTC 2008-12-04)
Audio
ID : 1
Format : AC-3
Format/Info : Audio Coding 3
Mode extension : CM (complete main)
Format settings, Endianness : Big
Codec ID : 2000
Duration : 2h 19mn
Bit rate mode : Constant
Bit rate : 192 Kbps
Channel count : 2 channels
Channel positions : Front: L R
Sampling rate : 48.0 KHz
Bit depth : 16 bits
Compression mode : Lossy
Stream size : 192 MiB (13%)
Alignment : Split accross interleaves
Interleave, duration : 42 ms (1.00 video frame)
Interleave, preload duration : 500 ms
[Торрент-статистика]
[Профиль]  [ЛС] 
Показать сообщения:    
Ответить на тему

Текущее время: Сегодня 15:33

Часовой пояс: GMT + 4



Вы не можете начинать темы
Вы не можете отвечать на сообщения
Вы не можете редактировать свои сообщения
Вы не можете удалять свои сообщения
Вы не можете голосовать в опросах
Вы не можете прикреплять файлы к сообщениям
Вы не можете скачивать файлы