Океан / Samundar (Рахул Равайл / Rahul Rawail) [1986 г., Драма, боевик, DVDRip] DUB

Ответить на тему
 
Автор
Сообщение

jons3 ®

Стаж: 2 года 3 месяца

Сообщений: 157

Репутация: 66 [+] [-]

Пост 22-Окт-2014 20:43

[Цитировать] 

Океан / SamundarГод выпуска: 1986
Страна: Индия
Жанр: Драма, боевик
Продолжительность: 02:23:47
Перевод: Профессиональный (полное дублирование)
Режиссер: Рахул Равайл / Rahul Rawail
В ролях: Санни Деол, Пунам Диллон, Анупам Кхер, Амриш Пури
Описание: Маленький Аджит после смерти отца, комиссара полиции, оказался в руках бандитов и был воспитан ими. Выполняя задание шефа, он похищает девушку, бежит от полиции и оказывается с нею на необитаемом острове... Вас ждет необыкновенное зрелище.

Тип релиза: DVDRip
Контейнер: AVI
Видео кодек: XviD
Аудио кодек: MP3 (MPEG1 Layer 3)
Видео: 672x352 (1.91:1), 23.976 fps, XviD build 50 ~1311 kbps avg, 0.23 bit/pixel
Аудио: 48 kHz, MPEG Layer 3, 2 ch, ~128.00 kbps
Риппер, синхрон. звука: soso4eg

Скриншоты

MI

General
Complete name : C:\INDIYA\[Релизы]\Okean.1986.DVDRip.XviD-soso4eg.avi
Format : AVI
Format/Info : Audio Video Interleave
File size : 1.46 GiB
Duration : 2h 23mn
Overall bit rate : 1 449 Kbps
Movie name : Samundar.1986.DVDRip.XviD-soso4eg
Director : soso4eg
Writing application : VirtualDubMod 1.5.10.3 | http://www.virtualdub-fr.org || (build 2550/release)
Copyright : специально для BitTorrent трекер RuTracker.org (ex torrents.ru)
Comment : Dubl
Video
ID : 0
Format : MPEG-4 Visual
Format profile : Advanced Simple@L5
Format settings, BVOP : 1
Format settings, QPel : No
Format settings, GMC : No warppoints
Format settings, Matrix : Default (H.263)
Codec ID : XVID
Codec ID/Hint : XviD
Duration : 2h 23mn
Bit rate : 1 312 Kbps
Width : 672 pixels
Height : 352 pixels
Display aspect ratio : 1.909
Frame rate : 23.976 fps
Color space : YUV
Chroma subsampling : 4:2:0
Bit depth : 8 bits
Scan type : Progressive
Compression mode : Lossy
Bits/(Pixel*Frame) : 0.231
Stream size : 1.32 GiB (91%)
Writing library : XviD 1.2.1 (UTC 2008-12-04)
Audio
ID : 1
Format : MPEG Audio
Format version : Version 1
Format profile : Layer 3
Mode : Joint stereo
Mode extension : MS Stereo
Codec ID : 55
Codec ID/Hint : MP3
Duration : 2h 23mn
Bit rate mode : Constant
Bit rate : 128 Kbps
Channel count : 2 channels
Sampling rate : 48.0 KHz
Compression mode : Lossy
Stream size : 132 MiB (9%)
Alignment : Aligned on interleaves
Interleave, duration : 42 ms (1.00 video frame)
Interleave, preload duration : 504 ms
[Торрент-статистика]
[Профиль]  [ЛС] 
Показать сообщения:    
Ответить на тему

Текущее время: Сегодня 22:08

Часовой пояс: GMT + 4



Вы не можете начинать темы
Вы не можете отвечать на сообщения
Вы не можете редактировать свои сообщения
Вы не можете удалять свои сообщения
Вы не можете голосовать в опросах
Вы не можете прикреплять файлы к сообщениям
Вы не можете скачивать файлы